<?xml version="1.0" standalone="no"?> 
<!DOCTYPE svg PUBLIC "-//W3C//DTD SVG 1.1//EN" "http://www.w3.org/Graphics/SVG/1.1/DTD/svg11.dtd" >
<svg xmlns="http://www.w3.org/2000/svg">
<defs>
  <font id="theme-icons" horiz-adv-x="1792">
    <font-face font-family="theme-icons"
      units-per-em="1792" ascent="1792"
      descent="0" />
    <missing-glyph horiz-adv-x="0" />
    <glyph glyph-name="angle-double-right-solid"
      unicode="&#xF101;"
      horiz-adv-x="1568" d=" M785.0500000000001 836.5L309.0500000000001 360.5C276.1500000000001 327.6000000000002 222.9500000000001 327.6000000000002 190.4 360.5L111.3 439.6000000000002C78.4000000000001 472.5 78.4000000000001 525.7000000000003 111.3 558.25L448.7000000000001 895.6499999999999L111.3 1233.05C78.4000000000001 1265.9499999999998 78.4000000000001 1319.1499999999999 111.3 1351.6999999999998L190.05 1431.5C222.95 1464.4 276.1500000000001 1464.4 308.7 1431.5L784.6999999999999 955.5C817.9499999999999 922.6 817.9499999999999 869.3999999999999 785.05 836.5zM1457.05 955.5L981.05 1431.5C948.15 1464.4 894.95 1464.4 862.4 1431.5L783.3000000000001 1352.4C750.4 1319.5 750.4 1266.3000000000002 783.3000000000001 1233.75L1120.7000000000003 896.35L783.3000000000002 558.95C750.4000000000001 526.05 750.4000000000001 472.8499999999999 783.3000000000002 440.3L862.4000000000001 361.2000000000001C895.3000000000002 328.3 948.5000000000002 328.3 981.05 361.2000000000001L1457.05 837.1999999999999C1489.95 869.3999999999999 1489.95 922.6 1457.05 955.5z" />
    <glyph glyph-name="arrow-left"
      unicode="&#xF102;"
      horiz-adv-x="917.8536585365854" d=" M46.329756097561 942.4171707317074L827.8602926829268 1767.6550243902439A44.97482926829269 44.97482926829269 0 0 0 894.1642926829268 1767.6550243902439A51.31239024390245 51.31239024390245 0 0 0 894.1642926829268 1697.6359024390244L145.9387317073171 907.5824390243902L894.1642926829268 117.5289756097559A51.31239024390245 51.31239024390245 0 0 0 894.1642926829268 47.5098536585365A44.40663414634147 44.40663414634147 0 0 0 828.2099512195122 47.5098536585365L46.6357073170732 872.7477073170732A51.137560975609766 51.137560975609766 0 0 0 46.329756097561 942.4171707317074z" />
    <glyph glyph-name="arrow-right"
      unicode="&#xF103;"
      horiz-adv-x="917.8536585365854" d=" M871.5239024390245 942.4171707317074L89.9933658536586 1767.6550243902439A44.97482926829269 44.97482926829269 0 0 1 23.6893658536586 1767.6550243902439A51.31239024390245 51.31239024390245 0 0 1 23.6893658536586 1697.6359024390244L771.9149268292684 907.5824390243902L23.6893658536585 117.5289756097559A51.31239024390245 51.31239024390245 0 0 1 23.6893658536585 47.5098536585365C32.6930731707317 37.9816585365852 44.8437073170732 32.8679024390244 56.6446829268293 32.8679024390244C68.4893658536586 32.8679024390244 80.5962926829269 37.5882926829268 89.6437073170732 47.5098536585365L871.2179512195122 872.7477073170733A51.137560975609766 51.137560975609766 0 0 1 871.5239024390245 942.4171707317074z" />
    <glyph glyph-name="call-in"
      unicode="&#xF104;"
      horiz-adv-x="1792" d=" M1750.6125 441.6720000000001C1723.2005000000001 460.9360000000001 1423.25925 660.3765000000001 1386.497 682.8325C1370.481 692.6325000000002 1350.937 697.4205000000002 1329.685 697.4205000000002C1302.273 697.4205000000002 1271.9209999999998 689.4405000000002 1242.29875 673.8445000000002C1213.429 658.6405000000002 1125.98675 608.8845000000001 1083.201 584.4405000000002C1045.513 610.9005000000002 956.97875 678.7165000000002 817.4809999999999 818.3525000000002C678.8547499999999 956.9245 610.4227499999998 1046.1867500000003 583.79475 1084.0725000000002C608.1827499999999 1126.8285000000003 657.88275 1214.2725000000003 673.00275 1243.0565000000001C701.64675 1297.3205000000003 704.8965000000001 1351.5005000000003 681.65475 1388.0405000000003C659.8444999999999 1422.4805000000003 461.21075 1723.7045000000003 440.71475 1752.0405000000003C421.42275 1778.7805 386.78675 1793.2285 349.2125000000001 1793.2285C319.5605000000001 1793.2285 288.1165000000001 1784.2685 260.8445 1765.2845C258.2125000000001 1763.4085 -5.32525 1572.3365 -1.82525 1463.6685C7.8925 1158.4125 304.5227500000001 799.6764999999999 551.649 552.4645S1157.541 8.5382499999998 1464.0010000000002 -1.2337499999999H1466.5210000000002C1573.8170000000002 -1.2337499999999 1762.42675 258.9702500000001 1764.2467500000002 261.5462500000001C1813.7227500000004 332.2462500000002 1795.6907500000002 410.0862500000001 1750.6125000000002 441.6720000000001zM1673.2467500000002 326.7827500000001C1602.2107500000002 228.3907500000001 1501.353 125.6289999999999 1461.8747500000002 110.9272500000002C1251.8187500000001 120.78325 957.06275 305.3872500000002 630.8347500000002 631.6712500000001C304.6347500000002 957.9832500000002 120.0587500000001 1252.40325 110.3147500000002 1461.75925C124.4827500000002 1501.3512500000002 227.2410000000002 1602.8512500000002 324.7370000000002 1673.35525C331.9610000000002 1678.33925 340.8650000000001 1681.22325 349.1810000000001 1681.22325C351.0272500000002 1681.22325 352.5672500000001 1681.0552500000001 353.7730000000002 1680.8312500000002C385.2730000000002 1635.0512500000002 554.3650000000001 1379.0735000000002 585.0530000000001 1331.22325C585.1650000000001 1326.18325 583.45875 1313.39075 573.8530000000001 1295.1330000000003C563.6330000000002 1275.6730000000002 531.7970000000001 1218.9450000000002 486.5210000000001 1139.5930000000003L451.2970000000001 1077.853L492.1490000000001 1019.669C522.6130000000002 976.4090000000002 595.0770000000002 882.3570000000001 738.2410000000002 739.1650000000002C882.0210000000001 595.3290000000002 975.737 523.0872500000003 1018.8290000000002 492.7930000000001L1077.0130000000004 451.941L1138.7530000000002 487.221C1198.5907500000003 521.41075 1270.8850000000002 562.3747500000002 1294.40675 574.721C1313.2787500000002 584.6610000000001 1326.18675 585.4467500000001 1329.68675 585.4467500000001C1330.2467500000002 585.4467500000001 1330.7245 585.4467500000001 1331.1147500000002 585.3890000000001C1373.9827500000001 558.4810000000002 1635.5045 384.8530000000001 1681.6747500000001 353.1850000000002C1682.4307500000002 348.7050000000002 1681.729 338.961 1673.2467500000002 326.7810000000002zM1126.713 1133.09525C1133.9370000000001 1125.78725 1144.1045 1121.3317500000003 1155.3885 1121.6397500000003L1175.8845 1122.1175000000003C1176.2747499999998 1122.1175000000003 1176.55475 1122.28375 1177.0045 1122.3100000000002L1578.63475 1120.5477500000002C1601.2307500000002 1121.07975 1619.96275 1139.78375 1620.4947499999998 1162.4375000000002L1620.5227499999999 1191.1655C1617.10675 1217.8215000000002 1596.1329999999998 1233.4455000000003 1573.5089999999998 1232.9415000000004L1308.3769999999997 1233.6415000000002L1766.793 1691.4415000000001C1788.6627499999997 1713.3095000000003 1788.6627499999997 1748.7872500000003 1766.793 1770.6552500000003C1744.9249999999997 1792.4952500000002 1709.4769999999999 1792.4952500000002 1687.6089999999997 1770.6552500000003L1227.9329999999998 1311.5952500000003L1229.4729999999997 1582.553C1229.9769999999996 1605.1752500000002 1212.0307499999997 1624.8872500000002 1189.4067499999996 1624.3552500000003L1160.6787499999996 1624.3290000000002C1137.9987499999995 1623.7690000000002 1119.2667499999995 1610.2992500000003 1118.7889999999995 1587.6752500000002L1117.6409999999996 1183.41125C1117.6409999999996 1183.0210000000002 1119.1809999999996 1182.7410000000002 1119.1809999999996 1182.3490000000002L1116.9409999999998 1161.853C1116.7169999999996 1150.4850000000001 1119.3752499999996 1140.3770000000002 1126.7129999999997 1133.0952500000003z" />
    <glyph glyph-name="check"
      unicode="&#xF105;"
      horiz-adv-x="1792" d=" M608.643 254.086L26.243 836.4859999999999C-8.7465 871.4755 -8.7465 928.2069999999998 26.243 963.2L152.9535 1089.914C187.943 1124.907 244.678 1124.907 279.6675 1089.914L672 697.585L1512.3325 1537.914C1547.3220000000001 1572.9035 1604.057 1572.9035 1639.0465000000002 1537.914L1765.7570000000003 1411.1999999999998C1800.7465000000002 1376.2105 1800.7465000000002 1319.479 1765.7570000000003 1284.4859999999999L735.3570000000003 254.0825C700.3640000000004 219.0929999999999 643.6325000000004 219.0929999999999 608.6430000000003 254.0859999999998z" />
    <glyph glyph-name="close"
      unicode="&#xF106;"
      horiz-adv-x="1792" d=" M904.512 1051.904L197.12 1759.296L39.76 1601.936L747.04 894.544L35.392 182.7839999999999L192.752 25.424L904.512 737.1840000000002L1613.472 28.2240000000002L1770.8319999999999 185.472L1061.872 894.432L1766.576 1599.248L1609.2160000000001 1756.608z" />
    <glyph glyph-name="envelope-open"
      unicode="&#xF107;"
      horiz-adv-x="1792" d=" M1790.7925 963.732C1788.4125 983.528 1780.9679999999998 1001.72975 1769.6262499999998 1017.04575H1769.9062499999998L1768.3662499999998 1018.58575C1762.6262499999998 1026.14575 1755.9062499999998 1032.80975 1748.4022499999999 1038.71775L1018.16225 1744.68C954.7720000000002 1808.07025 844.03025 1808.184 780.55425 1744.68L50.42625 1044.2337499999999C34.63425 1029.53375 -0.11375 989.82625 -0.11375 950.88V111.72C-0.11375 50.1480000000001 50.31425 -0.2799999999997 111.88625 -0.2799999999997H1679.88625C1741.4564999999998 -0.2799999999997 1791.88625 50.1480000000004 1791.88625 111.7200000000003V948.668C1792.2765 953.708 1791.7724999999998 958.748 1790.7925 963.73025zM472.1395 520.9137499999999L111.8915 189.1714999999999V838.7435zM587.2457499999999 474.7417499999999C591.24975 477.40175 595.0594999999998 480.4257499999999 598.39325 484.2057499999999C599.0355 484.9337500000001 599.4834999999999 485.8017500000001 600.0732499999999 486.5577499999999L847.1154999999999 714.0577499999999C859.7994999999999 724.2777500000002 874.8354999999998 729.6537500000002 890.6554999999998 729.6537500000002C906.7274999999998 729.6537500000002 922.7977499999998 724.02575 933.57775 715.6537500000002L1604.8777499999999 111.7217500000002H193.08975zM1325.5515 513.5235L1679.8915 827.9915000000001V194.7715000000001zM181.6115 1017.04925L859.73825 1665.50125C870.3502500000001 1676.05725 884.4079999999999 1681.90925 899.332 1681.90925C914.3119999999998 1681.90925 928.368 1676.05725 938.98 1665.50125L1571.388 1062.88525H1569.6817499999997L1665.7497499999997 965.24925L1241.7177499999998 588.9292500000001L1005.0337499999998 801.8412500000001C939.0937499999998 853.52925 844.4274999999998 855.7692500000002 774.5937499999997 799.4332500000002L554.9617499999999 597.1612500000001L131.8275 970.51325L179.0635 1017.04925H181.6115z" />
    <glyph glyph-name="facebook"
      unicode="&#xF108;"
      horiz-adv-x="1792" d=" M1343 1780V1516H1186Q1100 1516 1070 1480T1040 1372V1183H1333L1294 887H1040V128H734V887H479V1183H734V1401Q734 1587 838 1689.5T1115 1792Q1262 1792 1343 1780z" />
    <glyph glyph-name="flickr"
      unicode="&#xF109;"
      horiz-adv-x="1792" d=" M1376 1664Q1495 1664 1579.5 1579.5T1664 1376V416Q1664 297 1579.5 212.5T1376 128H416Q297 128 212.5 212.5T128 416V1376Q128 1495 212.5 1579.5T416 1664H1376zM826 896Q826 984 764 1046T614 1108T464 1046T402 896T464 746T614 684T764 746T826 896zM1390 896Q1390 984 1328 1046T1178 1108T1028 1046T966 896T1028 746T1178 684T1328 746T1390 896z" />
    <glyph glyph-name="github"
      unicode="&#xF10A;"
      horiz-adv-x="1792" d=" M896 1664Q1105 1664 1281.5 1561T1561 1281.5T1664 896Q1664 645 1517.5 444.5T1139 167Q1112 162 1099 174T1086 204Q1086 207 1086.5 280.5T1087 415Q1087 512 1035 557Q1092 563 1137.5 575T1231.5 614T1312.5 680.5T1365.5 785.5T1386 936Q1386 1055 1307 1142Q1344 1233 1299 1346Q1271 1355 1218 1335T1126 1291L1088 1267Q995 1293 896 1293T704 1267Q688 1278 661.5 1294T578 1332.5T493 1346Q448 1233 485 1142Q406 1055 406 936Q406 851 426.5 786T479 681T559.5 614T653.5 575T756 557Q717 521 707 454Q686 444 662 439T605 434T539.5 455.5T484 518Q465 550 435.5 570T386 594L366 597Q345 597 337 592.5T332 581T341 567T354 555L361 550Q383 540 404.5 512T436 461L446 438Q459 400 490 376.5T557 346.5T626.5 339.5T682 343L705 347Q705 309 705.5 258.5T706 204Q706 186 693 174T653 167Q421 244 274.5 444.5T128 896Q128 1105 231 1281.5T510.5 1561T896 1664zM419 561Q422 568 412 573Q402 576 399 571Q396 564 406 559Q415 553 419 561zM450 527Q457 532 448 543Q438 552 432 546Q425 541 434 530Q444 520 450 527zM480 482Q489 489 480 501Q472 514 463 507Q454 502 463 489T480 482zM522 440Q530 448 518 459Q506 471 498 462Q489 454 502 443Q514 431 522 440zM579 415Q582 426 566 431Q551 435 547 424T560 409Q575 403 579 415zM642 410Q642 423 625 421Q609 421 609 410Q609 397 626 399Q642 399 642 410zM700 420Q698 431 682 429Q666 426 668 414T686 406T700 420z" />
    <glyph glyph-name="google-plus"
      unicode="&#xF10B;"
      horiz-adv-x="1792" d=" M1181 879Q1181 671 1094 508.5T846 254.5T477 163Q328 163 192 221T-42 377T-198 611T-256 896T-198 1181T-42 1415T192 1571T477 1629Q763 1629 968 1437L769 1246Q652 1359 477 1359Q354 1359 249.5 1297T84 1128.5T23 896T84 663.5T249.5 495T477 433Q560 433 629.5 456T744 513.5T822.5 592T871.5 675T893 749H477V1001H1169Q1181 938 1181 879zM2048 1001V791H1839V582H1629V791H1420V1001H1629V1210H1839V1001H2048z" />
    <glyph glyph-name="hr"
      unicode="&#xF10C;"
      horiz-adv-x="10752" d=" M9557.333333333334 836.3861333333333L9557.333333333334 955.8528L10752 955.8528L10752 836.3861333333333L9557.333333333334 836.3861333333333zM2389.3333333333335 955.8528L8362.666666666666 955.8528L8362.666666666666 836.3861333333333L2389.3333333333335 836.3861333333333L2389.3333333333335 955.8528zM0 955.8528L1194.6666666666667 955.8528L1194.6666666666667 836.3861333333333L0 836.3861333333333L0 955.8528z" />
    <glyph glyph-name="icon-list"
      unicode="&#xF10D;"
      horiz-adv-x="2308.096" d=" M37.632 672C17.92 672 0 689.9200000000001 0 709.6320000000001C0 729.344 17.92 747.2639999999999 37.632 747.2639999999999L1008.896 747.2639999999999C1028.608 747.2639999999999 1046.528 731.136 1046.528 709.6320000000001C1046.528 688.1279999999999 1028.608 672 1008.896 672L37.632 672zM1008.896 523.2639999999999C1028.608 523.2639999999999 1046.528 507.136 1046.528 485.6320000000001C1046.528 464.1279999999999 1028.608 448 1008.896 448L37.632 448C17.92 448 0 465.9200000000001 0 485.6320000000001C0 505.3440000000001 17.92 523.2639999999999 37.632 523.2639999999999L1008.896 523.2639999999999zM1008.896 299.2639999999999C1028.608 299.2639999999999 1046.528 283.136 1046.528 261.6320000000001C1046.528 240.128 1028.608 224 1008.896 224L37.632 224C17.92 224 0 241.9200000000001 0 261.6320000000001C0 281.3440000000001 17.92 299.2639999999999 37.632 299.2639999999999L1008.896 299.2639999999999zM1008.896 75.2639999999999C1028.608 75.2639999999999 1046.528 59.136 1046.528 37.6320000000001C1046.528 16.1279999999999 1028.608 0 1008.896 0L37.632 0C17.92 0 0 17.9200000000001 0 37.6320000000001C0 57.3440000000001 17.92 75.2639999999999 37.632 75.2639999999999L1008.896 75.2639999999999zM523.264 896C275.968 896 75.264 1096.704 75.264 1344C75.264 1591.296 275.968 1792 523.264 1792C770.5600000000001 1792 971.264 1591.296 971.264 1344C971.264 1096.704 770.5600000000001 896 523.264 896zM523.264 1716.736C317.1840000000001 1716.736 150.528 1550.08 150.528 1344C150.528 1137.92 317.1840000000001 971.264 523.264 971.264C729.344 971.264 896 1137.92 896 1344C896 1550.08 729.344 1716.736 523.264 1716.736zM523.264 1120C399.616 1120 299.264 1220.3519999999999 299.264 1344C299.264 1467.648 399.616 1568 523.264 1568C646.912 1568 747.264 1467.648 747.264 1344C747.264 1220.3519999999999 646.912 1120 523.264 1120zM523.264 1492.7359999999999C440.832 1492.7359999999999 374.528 1426.432 374.528 1344C374.528 1261.568 440.832 1195.2640000000001 523.264 1195.2640000000001C605.696 1195.2640000000001 672 1261.568 672 1344C672 1426.432 605.696 1492.7359999999999 523.264 1492.7359999999999zM1299.2 672C1279.488 672 1261.568 689.9200000000001 1261.568 709.6320000000001C1261.568 729.344 1279.488 747.2639999999999 1299.2 747.2639999999999L2270.464 747.2639999999999C2290.176 747.2639999999999 2308.096 731.136 2308.096 709.6320000000001C2308.096 688.1279999999999 2290.176 672 2270.464 672L1299.2 672zM2270.464 523.2639999999999C2290.176 523.2639999999999 2308.096 507.136 2308.096 485.6320000000001C2308.096 464.1279999999999 2290.176 448 2270.464 448L1299.2 448C1279.488 448 1261.568 465.9200000000001 1261.568 485.6320000000001C1261.568 505.3440000000001 1279.488 523.2639999999999 1299.2 523.2639999999999L2270.464 523.2639999999999zM2270.464 299.2639999999999C2290.176 299.2639999999999 2308.096 283.136 2308.096 261.6320000000001C2308.096 240.128 2290.176 224 2270.464 224L1299.2 224C1279.488 224 1261.568 241.9200000000001 1261.568 261.6320000000001C1261.568 281.3440000000001 1279.488 299.2639999999999 1299.2 299.2639999999999L2270.464 299.2639999999999zM2270.464 75.2639999999999C2290.176 75.2639999999999 2308.096 59.136 2308.096 37.6320000000001C2308.096 16.1279999999999 2290.176 0 2270.464 0L1299.2 0C1279.488 0 1261.568 17.9200000000001 1261.568 37.6320000000001C1261.568 57.3440000000001 1279.488 75.2639999999999 1299.2 75.2639999999999L2270.464 75.2639999999999zM1784.832 896C1537.536 896 1336.832 1096.704 1336.832 1344C1336.832 1591.296 1537.536 1792 1784.832 1792C2032.128 1792 2232.832 1591.296 2232.832 1344C2232.832 1096.704 2032.128 896 1784.832 896zM1784.832 1716.736C1578.752 1716.736 1412.096 1550.08 1412.096 1344C1412.096 1137.92 1578.752 971.264 1784.832 971.264C1990.912 971.264 2157.568 1137.92 2157.568 1344C2157.568 1550.08 1990.912 1716.736 1784.832 1716.736zM1784.832 1120C1661.184 1120 1560.832 1220.3519999999999 1560.832 1344C1560.832 1467.648 1661.184 1568 1784.832 1568C1908.48 1568 2008.832 1467.648 2008.832 1344C2008.832 1220.3519999999999 1908.48 1120 1784.832 1120zM1784.832 1492.7359999999999C1702.4 1492.7359999999999 1636.096 1426.432 1636.096 1344C1636.096 1261.568 1702.4 1195.2640000000001 1784.832 1195.2640000000001C1867.264 1195.2640000000001 1933.568 1261.568 1933.568 1344C1933.568 1426.432 1867.264 1492.7359999999999 1784.832 1492.7359999999999z" />
    <glyph glyph-name="image-box"
      unicode="&#xF10E;"
      horiz-adv-x="2308.096" d=" M928.256 1591.772672L928.256 1053.83936C928.256 1051.495424 927.1784112640001 1050.323456 927.1784112640001 1049.151488C927.1784112640001 1046.807552 926.100820736 1045.635584 926.100820736 1044.463616C925.0232320000002 1043.291648 925.0232320000002 1042.11968 923.945643264 1040.9477120000001C922.868052736 1039.775744 921.7904640000002 1037.4318079999998 920.712875264 1036.25984L919.6352847360002 1036.25984C919.6352847360002 1035.087872 918.557696 1035.087872 918.557696 1035.087872C915.324928 1032.7439359999998 911.014571264 1030.4 905.626624 1030.4L142.693376 1030.4C137.3054292736 1030.4 130.8398932736 1032.7439359999998 126.529536 1037.4318079999998C124.3743572736 1039.775744 123.296768 1042.11968 122.2191787264 1044.463616L122.2191787264 1045.635584C121.1415892736 1049.151488 120.064 1051.495424 120.064 1055.011328L120.064 1591.772672C120.064 1605.836288 129.762304 1616.384 142.693376 1616.384L905.626624 1616.384C918.557696 1616.384 928.256 1605.836288 928.256 1591.772672zM858.368 1550.08L189.952 1550.08L189.952 1171.9679999999998L342.5033991680001 1318.523039232C349.5287936000001 1325.362273536 359.5650688 1326.339307776 368.597718272 1321.45414016L477.520064 1248.3602199040001L638.027355392 1416.860702208C642.041865472 1421.745869824 647.060003072 1424.676970752 654.0853975040001 1423.699938304C660.107162624 1423.699938304 666.128927744 1420.768837376 669.139810304 1415.883667968L858.368 1181.738335232L858.368 1550.08zM836.864 1102.08L649.664209152 1336.8319999999999L499.503947264 1172.111058944C492.496469248 1164.220236032 481.484717056 1163.2338816000001 472.47510016 1168.165646592L361.356507904 1238.196705536L222.208 1102.08L836.864 1102.08zM1008.896 747.2639999999999C1028.608 747.2639999999999 1046.528 731.136 1046.528 709.6320000000001C1046.528 688.1279999999999 1028.608 672 1008.896 672L37.632 672C17.92 672 0 689.9200000000001 0 709.6320000000001C0 729.344 17.92 747.2639999999999 37.632 747.2639999999999L1008.896 747.2639999999999zM1008.896 523.2639999999999C1028.608 523.2639999999999 1046.528 507.136 1046.528 485.6320000000001C1046.528 464.1279999999999 1028.608 448 1008.896 448L37.632 448C17.92 448 0 465.9200000000001 0 485.6320000000001C0 505.3440000000001 17.92 523.2639999999999 37.632 523.2639999999999L1008.896 523.2639999999999zM1008.896 299.2639999999999C1028.608 299.2639999999999 1046.528 283.136 1046.528 261.6320000000001C1046.528 240.128 1028.608 224 1008.896 224L37.632 224C17.92 224 0 241.9200000000001 0 261.6320000000001C0 281.3440000000001 17.92 299.2639999999999 37.632 299.2639999999999L1008.896 299.2639999999999zM1008.896 75.2639999999999C1028.608 75.2639999999999 1046.528 59.136 1046.528 37.6320000000001C1046.528 16.1279999999999 1028.608 0 1008.896 0L37.632 0C17.92 0 0 17.9200000000001 0 37.6320000000001C0 57.3440000000001 17.92 75.2639999999999 37.632 75.2639999999999L1008.896 75.2639999999999zM356.940647168 1342.208C305.1121436160001 1342.208 263.424 1382.308024832 263.424 1432.1621081600001C263.424 1482.016191488 305.1121436160001 1523.2 356.940647168 1523.2C408.7691489280001 1523.2 451.584 1482.016191488 451.584 1432.1621081600001C451.584 1382.308024832 408.7691489280001 1342.208 356.940647168 1342.208zM357.08298752 1467.648C337.716433152 1467.648 322.56 1452.46997504 322.56 1434.096577536C322.56 1415.723180032 337.716433152 1401.344 357.08298752 1401.344C376.4495418880001 1401.344 392.4480000000001 1415.723180032 392.4480000000001 1434.096577536C392.4480000000001 1452.46997504 376.4495418880001 1467.648 357.08298752 1467.648zM2189.824 1591.772672L2189.824 1053.83936C2189.824 1051.495424 2188.74641664 1050.323456 2188.74641664 1049.151488C2188.74641664 1046.807552 2187.6688153600003 1045.635584 2187.6688153600003 1044.463616C2186.5912319999998 1043.291648 2186.5912319999998 1042.11968 2185.51364864 1040.9477120000001C2184.43604736 1039.775744 2183.358464 1037.4318079999998 2182.2808806400003 1036.25984L2181.20327936 1036.25984C2181.20327936 1035.087872 2180.125696 1035.087872 2180.125696 1035.087872C2176.892928 1032.7439359999998 2172.5825766400003 1030.4 2167.194624 1030.4L1404.2613760000002 1030.4C1398.873428736 1030.4 1392.4078927360001 1032.7439359999998 1388.097536 1037.4318079999998C1385.9423567360002 1039.775744 1384.864768 1042.11968 1383.787179264 1044.463616L1383.787179264 1045.635584C1382.709588736 1049.151488 1381.632 1051.495424 1381.632 1055.011328L1381.632 1591.772672C1381.632 1605.836288 1391.330304 1616.384 1404.2613760000002 1616.384L2167.194624 1616.384C2180.125696 1616.384 2189.824 1605.836288 2189.824 1591.772672zM2119.936 1550.08L1451.52 1550.08L1451.52 1171.9679999999998L1604.0713991680002 1318.523039232C1611.0967936 1325.362273536 1621.1330688 1326.339307776 1630.165718272 1321.45414016L1739.088064 1248.3602199040001L1899.5953536 1416.860702208C1903.6098636800004 1421.745869824 1908.62800128 1424.676970752 1915.65339392 1423.699938304C1921.67515904 1423.699938304 1927.69692416 1420.768837376 1930.70780672 1415.883667968L2119.936 1181.738335232L2119.936 1550.08zM2098.4320000000002 1102.08L1911.23220736 1336.8319999999999L1761.071947264 1172.111058944C1754.064469248 1164.220236032 1743.052717056 1163.2338816000001 1734.04310016 1168.165646592L1622.9245079040002 1238.196705536L1483.776 1102.08L2098.4320000000002 1102.08zM2270.464 747.2639999999999C2290.176 747.2639999999999 2308.096 731.136 2308.096 709.6320000000001C2308.096 688.1279999999999 2290.176 672 2270.464 672L1299.2 672C1279.488 672 1261.568 689.9200000000001 1261.568 709.6320000000001C1261.568 729.344 1279.488 747.2639999999999 1299.2 747.2639999999999L2270.464 747.2639999999999zM2270.464 523.2639999999999C2290.176 523.2639999999999 2308.096 507.136 2308.096 485.6320000000001C2308.096 464.1279999999999 2290.176 448 2270.464 448L1299.2 448C1279.488 448 1261.568 465.9200000000001 1261.568 485.6320000000001C1261.568 505.3440000000001 1279.488 523.2639999999999 1299.2 523.2639999999999L2270.464 523.2639999999999zM2270.464 299.2639999999999C2290.176 299.2639999999999 2308.096 283.136 2308.096 261.6320000000001C2308.096 240.128 2290.176 224 2270.464 224L1299.2 224C1279.488 224 1261.568 241.9200000000001 1261.568 261.6320000000001C1261.568 281.3440000000001 1279.488 299.2639999999999 1299.2 299.2639999999999L2270.464 299.2639999999999zM2270.464 75.2639999999999C2290.176 75.2639999999999 2308.096 59.136 2308.096 37.6320000000001C2308.096 16.1279999999999 2290.176 0 2270.464 0L1299.2 0C1279.488 0 1261.568 17.9200000000001 1261.568 37.6320000000001C1261.568 57.3440000000001 1279.488 75.2639999999999 1299.2 75.2639999999999L2270.464 75.2639999999999zM1618.508647168 1342.208C1566.680143616 1342.208 1524.992 1382.308024832 1524.992 1432.1621081600001C1524.992 1482.016191488 1566.680143616 1523.2 1618.508647168 1523.2C1670.337148928 1523.2 1713.152 1482.016191488 1713.152 1432.1621081600001C1713.152 1382.308024832 1670.337148928 1342.208 1618.508647168 1342.208zM1618.65098752 1467.648C1599.284433152 1467.648 1584.128 1452.46997504 1584.128 1434.096577536C1584.128 1415.723180032 1599.284433152 1401.344 1618.65098752 1401.344C1638.0175418879999 1401.344 1654.016 1415.723180032 1654.016 1434.096577536C1654.016 1452.46997504 1638.0175418879999 1467.648 1618.65098752 1467.648z" />
    <glyph glyph-name="instagram"
      unicode="&#xF10F;"
      horiz-adv-x="1792" d=" M1152 896Q1152 1002 1077 1077T896 1152T715 1077T640 896T715 715T896 640T1077 715T1152 896zM1290 896Q1290 732 1175 617T896 502T617 617T502 896T617 1175T896 1290T1175 1175T1290 896zM1398 1306Q1398 1268 1371 1241T1306 1214T1241 1241T1214 1306T1241 1371T1306 1398T1371 1371T1398 1306zM896 1526Q889 1526 819.5 1526.5T714 1526.5T617.5 1523.5T514.5 1513.5T443 1495Q393 1475 355 1437T297 1349Q286 1320 278.5 1277.5T268.5 1174.5T265.5 1078T265.5 972.5T266 896T265.5 819.5T265.5 714T268.5 617.5T278.5 514.5T297 443Q317 393 355 355T443 297Q472 286 514.5 278.5T617.5 268.5T714 265.5T819.5 265.5T896 266T972.5 265.5T1078 265.5T1174.5 268.5T1277.5 278.5T1349 297Q1399 317 1437 355T1495 443Q1506 472 1513.5 514.5T1523.5 617.5T1526.5 714T1526.5 819.5T1526 896T1526.5 972.5T1526.5 1078T1523.5 1174.5T1513.5 1277.5T1495 1349Q1475 1399 1437 1437T1349 1495Q1320 1506 1277.5 1513.5T1174.5 1523.5T1078 1526.5T972.5 1526.5T896 1526zM1664 896Q1664 667 1659 579Q1649 371 1535 257T1213 133Q1125 128 896 128T579 133Q371 143 257 257T133 579Q128 667 128 896T133 1213Q143 1421 257 1535T579 1659Q667 1664 896 1664T1213 1659Q1421 1649 1535 1535T1659 1213Q1664 1125 1664 896z" />
    <glyph glyph-name="linkedin"
      unicode="&#xF110;"
      horiz-adv-x="1792" d=" M477 1167V176H147V1167H477zM498 1473Q499 1400 447.5 1351T312 1302H310Q228 1302 178 1351T128 1473Q128 1547 179.5 1595.5T314 1644T447 1595.5T498 1473zM1664 744V176H1335V706Q1335 811 1294.5 870.5T1168 930Q1105 930 1062.5 895.5T999 810Q988 780 988 729V176H659Q661 575 661 823T660 1119L659 1167H988V1023H986Q1006 1055 1027 1079T1083.5 1131T1170.5 1174.5T1285 1190Q1456 1190 1560 1076.5T1664 744z" />
    <glyph glyph-name="location-pin-2"
      unicode="&#xF111;"
      horiz-adv-x="1342.688780487805" d=" M677.7501346341463 1790.8950790243903C1100.2775102439025 1790.8950790243903 1342.688780487805 1478.3562926829268 1342.688780487805 1108.1098614634147C1342.688780487805 737.6676214634147 1010.6250614634146 306.6645229268293 783.2351219512195 45.2598009756098C782.2578263414633 44.1408936585367 743.3757970731708 0.6433717073169 695.1229190243903 0.6433717073169L690.8413502439024 0.6433717073169C642.5902204878049 0.6433717073169 603.426716097561 44.1408936585367 602.5036175609756 45.2598009756098C360.2042380487805 323.9236682926828 0 720.4084760975609 0 1108.1098614634147C0 1478.3562926829268 310.7765073170732 1790.8950790243903 677.7501346341463 1790.8950790243903zM673.3007297560976 1385.6827941463416C524.6145560975609 1385.6827941463416 404.0636565853659 1265.1318946341464 404.0636565853659 1116.4457209756097C404.0636565853659 967.7595473170732 524.6145560975609 847.2086478048781 673.3007297560976 847.2086478048781C821.9869034146342 847.2086478048781 942.5378029268292 967.7595473170732 942.5378029268292 1116.4457209756097C942.5378029268292 1265.1318946341464 821.9869034146342 1385.6827941463416 673.3007297560976 1385.6827941463416z" />
    <glyph glyph-name="location-pin"
      unicode="&#xF112;"
      horiz-adv-x="1792" d=" M902.412 1792.644C535.0799999999999 1792.644 224 1479.8 224 1109.192C224 721.1120000000001 584.556 324.24 827.0920000000001 45.3039999999999C828.0160000000001 44.184 867.21775 0.6439999999998 915.516 0.6439999999998H919.80175C968.10175 0.6439999999998 1007.0217500000002 44.184 1008 45.3039999999999C1235.6119999999999 306.964 1568 738.3879999999999 1568 1109.192C1568 1479.8 1325.352 1792.644 902.412 1792.644zM924.868 120.4280000000001C922.908 118.4680000000001 920.0502499999998 116.28225 917.53025 114.4622500000001C914.95425 116.2262500000002 912.15425 118.4662500000002 910.084 120.42625L880.7942499999999 154.1102500000002C650.86 417.8999999999999 336 779.12625 336 1109.192C336 1418.9560000000001 595.3919999999999 1680.672 902.412 1680.672C1284.836 1680.672 1456 1393.672 1456 1109.192C1456 858.62 1277.2759999999998 525.924 924.868 120.4280000000001zM897.95825 1453.536C712.4022500000001 1453.536 561.95825 1303.0919999999999 561.95825 1117.536S712.4022500000001 781.536 897.95825 781.536S1233.9582500000001 931.98 1233.9582500000001 1117.536S1083.5142500000002 1453.536 897.95825 1453.536zM897.95825 893.536C774.45025 893.536 671.3805 996.464 671.3805 1120C671.3805 1243.508 771.8725 1344 895.3805 1344C1018.9725 1344 1119.3805 1243.508 1119.3805 1120C1119.4365 996.464 1021.5502499999998 893.536 897.9582499999999 893.536z" />
    <glyph glyph-name="magnifier"
      unicode="&#xF113;"
      horiz-adv-x="1792" d=" M1775.62 96.1800000000001L1231.4925 643.6377500000001C1332.9085 765.10175 1394.0325 921.36975 1394.0325 1092.00175C1394.0325 1478.5977500000001 1080.6285 1792.0017500000001 694.0325 1792.0017500000001S-5.9674999999999 1478.5977500000001 -5.9674999999999 1092.00175S307.4365 392.0017499999999 694.0325 392.0017499999999C869.6765 392.0017499999999 1030.1165 456.8497500000001 1153.0365000000002 563.7537499999999L1696.4045 16.96975C1718.2725 -4.8999999999999 1753.75025 -4.8999999999999 1775.61825 16.96975C1797.45825 38.8377499999999 1797.45825 74.28575 1775.61825 96.1800000000001zM694.0324999999999 503.0777499999999C368.7845 503.0777499999999 105.1084999999999 766.7537499999999 105.1084999999999 1092.00175S368.7845000000001 1680.92575 694.0324999999999 1680.92575C1019.2804999999998 1680.92575 1282.9564999999998 1417.24975 1282.9564999999998 1092.00175S1019.2805 503.0777499999999 694.0324999999999 503.0777499999999z" />
    <glyph glyph-name="menu"
      unicode="&#xF114;"
      horiz-adv-x="1792" d=" M47.25 1453.2C32.9 1467.55 25.9 1485.75 25.9 1507.8S32.9 1548.05 47.25 1562.4S79.8 1583.75 101.85 1583.75H1698.55C1720.6000000000001 1583.75 1738.8 1576.75 1753.15 1562.4S1774.5000000000002 1529.85 1774.5000000000002 1507.8000000000002S1767.5000000000002 1467.5500000000002 1753.15 1453.2S1720.6000000000001 1431.8500000000001 1698.55 1431.8500000000001H101.85C79.8 1431.8500000000001 61.6 1438.8500000000001 47.25 1453.2zM1753.1499999999999 954.1000000000003C1767.5 939.7500000000002 1774.5 921.55 1774.5 899.5000000000001S1767.5 859.25 1753.1499999999999 844.9000000000001S1720.6 823.5500000000001 1698.5499999999997 823.5500000000001H101.85C79.8 823.5500000000001 61.6 830.5500000000001 47.25 844.9000000000001S25.9 877.4499999999999 25.9 899.5S32.9 939.75 47.25 954.1S79.8 975.45 101.85 975.45H1698.55C1720.6000000000001 975.45 1738.8 968.45 1753.15 954.1zM1753.1499999999999 346.1500000000001C1767.5 331.8 1774.5 313.6000000000002 1774.5 291.55S1767.5 251.3 1753.1499999999999 236.9500000000001S1720.6 215.5999999999999 1698.5499999999997 215.5999999999999H101.85C79.8 215.5999999999999 61.6 222.5999999999999 47.25 236.9500000000001S25.9 269.5 25.9 291.55S32.9 331.8 47.25 346.1500000000001S79.8 367.5 101.85 367.5H1698.55C1720.6000000000001 367.5 1738.8 360.1499999999999 1753.15 346.1499999999999z" />
    <glyph glyph-name="mountain-solid"
      unicode="&#xF115;"
      horiz-adv-x="2240" d=" M2222.22 172.55L1214.2199999999998 1740.55C1193.605 1772.61 1158.115 1792 1120 1792S1046.395 1772.61 1025.78 1740.55L17.7799999999999 172.55A112.00349999999999 112.00349999999999 0 0 1 13.6849999999999 58.3100000000002A112.01399999999998 112.01399999999998 0 0 1 112 0H2128C2168.985 0 2206.6800000000003 22.365 2226.315 58.345A111.94050000000003 111.94050000000003 0 0 1 2222.2200000000003 172.55zM1120 1472.87L1418.865 1008H1120L896 784L762.79 917.21L1120 1472.87z" />
    <glyph glyph-name="ok"
      unicode="&#xF116;"
      horiz-adv-x="1044.7822878228783" d=" M532.210774907749 1786.0420959409594C277.0127822878229 1786.0420959409594 70.1392767527675 1579.1619778597785 70.1392767527675 1323.9705977859778C70.1392767527675 1068.7726051660516 277.0127822878229 861.87926199262 532.210774907749 861.87926199262S994.2822730627306 1068.7726051660516 994.2822730627306 1323.9705977859778C994.2822730627306 1579.1619778597785 787.4087675276753 1786.0420959409594 532.210774907749 1786.0420959409594zM532.210774907749 1132.947365313653C426.7208265682657 1132.947365313653 341.2007675276753 1218.474036900369 341.2007675276753 1323.9639852398523C341.2007675276753 1429.4539335793359 426.7208265682658 1514.973992619926 532.210774907749 1514.973992619926S723.2207822878229 1429.4539335793356 723.2207822878229 1323.9639852398523S637.7007232472324 1132.947365313653 532.210774907749 1132.947365313653zM695.3422878228782 494.2084723247233L974.5702730627308 217.4668044280443C1023.6750405904058 168.4413874538746 1023.7345535055352 88.8924575645756 974.7091365313652 39.7876900369004C925.6837195571956 -9.3104649446495 846.1480147601475 -9.389815498155 797.0300221402214 39.6488265682656L525.9420811808117 303.6348929889298L279.7239261992619 41.3482509225091A125.26807380073798 125.26807380073798 0 0 0 189.2709077490774 2.9161328413281A125.21517343173431 125.21517343173431 0 0 0 102.0712619926198 38.108103321033C52.1200885608855 86.2738892988928 50.6719409594095 165.8095940959409 98.8377269372692 215.760767527675L363.8751881918818 492.747099630996C173.7049741697416 529.545918819188 58.2763690036899 619.4302583025826 52.3316900369002 624.1979040590402C-1.7986125461256 667.6092693726935 -10.4941107011071 746.682095940959 32.917254612546 800.8190110701105C76.3220073800737 854.9493136531363 155.3882214022139 863.6448118081179 209.5317490774907 820.2400590405903C210.6757195571954 819.3143025830258 331.407586715867 728.6166199261991 525.9354686346862 728.4843690036898C720.4699630996308 728.6166199261991 838.7022878228781 819.3143025830256 839.8462583025829 820.2400590405903C893.9897859778596 863.6448118081179 973.056 854.9493136531363 1016.4607527675277 800.8190110701105C1059.8721180811808 746.682095940959 1051.1766199261992 667.6092693726935 997.0463173431734 624.1979040590402C991.1809889298892 619.4963837638372 880.3282656826566 531.8933726937266 695.342287822878 494.2084723247228z" />
    <glyph glyph-name="page-header"
      unicode="&#xF117;"
      horiz-adv-x="1892.1856540084389" d=" M1854.3797468354433 1423.392405063291C1875.1729957805908 1423.392405063291 1892.1856540084389 1406.379746835443 1892.1856540084389 1383.6962025316457L1892.1856540084389 438.5485232067511C1892.1856540084389 417.7552742616033 1875.1729957805908 398.8523206751054 1854.3797468354433 398.8523206751054L39.1874541097046 398.8523206751054C16.5039097681013 398.8523206751054 -0.5087484521857 417.7552742616033 -0.5087484521857 438.5485232067511L-0.5087484521857 1383.6962025316457C-0.5087484521857 1406.379746835443 16.5039097681013 1423.392405063291 39.1874541097046 1423.392405063291L1854.3797468354433 1423.392405063291zM1814.6835443037976 478.2447257383967L1814.6835443037976 1344L76.9933612827004 1344L76.9933612827004 478.2447257383967L1814.6835443037976 478.2447257383967zM226.8354430379747 792.0337552742616C204.1518987341772 792.0337552742616 187.1392405063291 809.0464135021097 187.1392405063291 829.8396624472574C187.1392405063291 852.5232067510549 204.1518987341772 869.535864978903 226.8354430379747 869.535864978903L359.15611814346 869.535864978903C379.9493670886076 869.535864978903 396.9620253164557 850.632911392405 396.9620253164557 829.8396624472574C396.9620253164557 809.0464135021097 379.9493670886076 792.0337552742616 359.15611814346 792.0337552742616L226.8354430379747 792.0337552742616zM474.464135021097 792.0337552742616C451.7805907172996 792.0337552742616 434.7679324894515 809.0464135021097 434.7679324894515 829.8396624472574C434.7679324894515 852.5232067510549 451.7805907172996 869.535864978903 474.464135021097 869.535864978903L606.7848101265823 869.535864978903C627.57805907173 869.535864978903 644.590717299578 850.632911392405 644.590717299578 829.8396624472574C644.590717299578 809.0464135021097 627.57805907173 792.0337552742616 606.7848101265823 792.0337552742616L474.464135021097 792.0337552742616zM722.0928270042194 792.0337552742616C699.409282700422 792.0337552742616 682.3966244725739 809.0464135021097 682.3966244725739 829.8396624472574C682.3966244725739 852.5232067510549 699.409282700422 869.535864978903 722.0928270042194 869.535864978903L854.4135021097046 869.535864978903C875.2067510548524 869.535864978903 892.2194092827004 850.632911392405 892.2194092827004 829.8396624472574C892.2194092827004 809.0464135021097 875.2067510548524 792.0337552742616 854.4135021097046 792.0337552742616L722.0928270042194 792.0337552742616zM226.8354430379747 948.928270042194C204.1518987341772 948.928270042194 187.1392405063291 967.831223628692 187.1392405063291 988.6244725738396C187.1392405063291 1009.4177215189874 204.1518987341772 1028.3206751054852 226.8354430379747 1028.3206751054852L1092.590717299578 1028.3206751054852C1115.2742616033756 1028.3206751054852 1132.2869198312237 1011.3080168776372 1132.2869198312237 988.6244725738396C1132.2869198312237 965.9409282700421 1115.2742616033756 948.928270042194 1092.590717299578 948.928270042194L226.8354430379747 948.928270042194z" />
    <glyph glyph-name="pinterest"
      unicode="&#xF118;"
      horiz-adv-x="1792" d=" M1664 896Q1664 687 1561 510.5T1281.5 231T896 128Q785 128 678 160Q737 253 756 324Q765 358 810 535Q830 496 883 467.5T997 439Q1118 439 1213 507.5T1360 696T1412 966Q1412 1080 1352.5 1180T1180 1343T925 1406Q820 1406 729 1377T574.5 1300T465.5 1189.5T398.5 1060T377 926Q377 822 417 743T534 632Q564 620 572 652Q574 659 580 683T588 713Q594 736 577 756Q526 817 526 907Q526 1058 630.5 1166.5T904 1275Q1055 1275 1139.5 1193T1224 980Q1224 810 1155.5 691T980 572Q919 572 882 615.5T859 720Q867 755 885.5 813.5T915.5 916.5T927 992Q927 1042 900 1075T823 1108Q761 1108 718 1051T675 909Q675 836 700 787L601 369Q584 299 588 192Q382 283 255 473T128 896Q128 1105 231 1281.5T510.5 1561T896 1664T1281.5 1561T1561 1281.5T1664 896z" />
    <glyph glyph-name="pr-carousel"
      unicode="&#xF119;"
      horiz-adv-x="2650.8875739644973" d=" M1202.7310360236686 1624.9940828402366C1231.8907993372782 1624.9940828402366 1255.7487875029585 1601.1360946745563 1255.7487875029585 1569.3254437869823L1255.7487875029585 243.8816568047337C1255.7487875029585 214.7218934911241 1231.8907993372782 188.2130177514791 1202.7310360236686 188.2130177514791L498.3668639053255 188.2130177514791C466.5562130177515 188.2130177514791 442.6982248520711 214.7218934911241 442.6982248520711 243.8816568047337L442.6982248520711 1569.3254437869823C442.6982248520711 1601.1360946745563 466.5562130177515 1624.9940828402366 498.3668639053255 1624.9940828402366L1202.7310360236686 1624.9940828402366zM1147.0623969704143 299.550295857988L1147.0623969704143 1513.6568047337278L551.3846153846155 1513.6568047337278L551.3846153846155 299.550295857988L1147.0623969704143 299.550295857988zM718.3905325443787 410.8875739644968C686.5798816568048 410.8875739644968 662.7218934911243 434.7455621301774 662.7218934911243 463.905325443787C662.7218934911243 495.7159763313609 686.5798816568048 519.5739644970413 718.3905325443787 519.5739644970413L981.5807348639054 519.5739644970413C1010.7404981775148 519.5739644970413 1034.5984863431952 493.0650887573963 1034.5984863431952 463.905325443787C1034.5984863431952 434.7455621301774 1010.7404981775148 410.8875739644968 981.5807348639054 410.8875739644968L718.3905325443787 410.8875739644968zM718.3905325443787 604.4023668639052C686.5798816568048 604.4023668639052 662.7218934911243 628.2603550295858 662.7218934911243 657.4201183431951C662.7218934911243 689.230769230769 686.5798816568048 713.0887573964496 718.3905325443787 713.0887573964496L981.5807348639054 713.0887573964496C1010.7404981775148 713.0887573964496 1034.5984863431952 686.5798816568047 1034.5984863431952 657.4201183431951C1034.5984863431952 628.2603550295858 1010.7404981775148 604.4023668639052 981.5807348639054 604.4023668639052L718.3905325443787 604.4023668639052zM718.3905325443787 797.9171597633135C686.5798816568048 797.9171597633135 662.7218934911243 821.775147928994 662.7218934911243 850.9349112426034C662.7218934911243 882.7455621301774 686.5798816568048 906.6035502958578 718.3905325443787 906.6035502958578L981.5807348639054 906.6035502958578C1010.7404981775148 906.6035502958578 1034.5984863431952 880.0946745562129 1034.5984863431952 850.9349112426034C1034.5984863431952 821.775147928994 1010.7404981775148 797.9171597633135 981.5807348639054 797.9171597633135L718.3905325443787 797.9171597633135zM2154.3996750769234 1624.9940828402366C2183.5594383905327 1624.9940828402366 2207.4174265562133 1601.1360946745563 2207.4174265562133 1569.3254437869823L2207.4174265562133 243.8816568047337C2207.4174265562133 214.7218934911241 2183.5594383905327 188.2130177514791 2154.3996750769234 188.2130177514791L1450.03550295858 188.2130177514791C1418.2248520710061 188.2130177514791 1394.3668639053255 214.7218934911241 1394.3668639053255 243.8816568047337L1394.3668639053255 1569.3254437869823C1394.3668639053255 1601.1360946745563 1418.2248520710061 1624.9940828402366 1450.03550295858 1624.9940828402366L2154.3996750769234 1624.9940828402366zM2098.731036023669 299.550295857988L2098.731036023669 1513.6568047337278L1503.05325443787 1513.6568047337278L1503.05325443787 299.550295857988L2098.731036023669 299.550295857988zM1670.0591715976332 410.8875739644968C1638.2485207100592 410.8875739644968 1614.3905325443789 434.7455621301774 1614.3905325443789 463.905325443787C1614.3905325443789 495.7159763313609 1638.2485207100592 519.5739644970413 1670.0591715976332 519.5739644970413L1933.24937391716 519.5739644970413C1962.4091372307691 519.5739644970413 1986.26712539645 493.0650887573963 1986.26712539645 463.905325443787C1986.26712539645 434.7455621301774 1962.4091372307691 410.8875739644968 1933.24937391716 410.8875739644968L1670.0591715976332 410.8875739644968zM1670.0591715976332 604.4023668639052C1638.2485207100592 604.4023668639052 1614.3905325443789 628.2603550295858 1614.3905325443789 657.4201183431951C1614.3905325443789 689.230769230769 1638.2485207100592 713.0887573964496 1670.0591715976332 713.0887573964496L1933.24937391716 713.0887573964496C1962.4091372307691 713.0887573964496 1986.26712539645 686.5798816568047 1986.26712539645 657.4201183431951C1986.26712539645 628.2603550295858 1962.4091372307691 604.4023668639052 1933.24937391716 604.4023668639052L1670.0591715976332 604.4023668639052zM1670.0591715976332 797.9171597633135C1638.2485207100592 797.9171597633135 1614.3905325443789 821.775147928994 1614.3905325443789 850.9349112426034C1614.3905325443789 882.7455621301774 1638.2485207100592 906.6035502958578 1670.0591715976332 906.6035502958578L1933.24937391716 906.6035502958578C1962.4091372307691 906.6035502958578 1986.26712539645 880.0946745562129 1986.26712539645 850.9349112426034C1986.26712539645 821.775147928994 1962.4091372307691 797.9171597633135 1933.24937391716 797.9171597633135L1670.0591715976332 797.9171597633135zM315.4556213017752 1166.3905325443786C336.6627218934912 1145.1834319526627 336.6627218934912 1110.7218934911243 315.4556213017752 1089.5147928994083L132.5443786982249 906.6035502958578L315.4556213017752 723.6923076923076C336.6627218934912 702.4852071005917 336.6627218934912 668.0236686390531 315.4556213017752 646.8165680473371C304.8520710059172 636.2130177514791 288.9467455621302 630.9112426035501 275.6923076923078 630.9112426035501C262.4378698224853 630.9112426035501 249.1834319526628 636.2130177514791 238.5798816568048 646.8165680473371L15.905325443787 866.8402366863904C-5.301775147929 888.0473372781064 -5.301775147929 925.1597633136093 15.905325443787 946.3668639053254L238.5798816568048 1166.3905325443786C259.7869822485208 1187.5976331360946 294.2485207100592 1187.5976331360946 315.4556213017752 1166.3905325443786zM2634.98224852071 946.3668639053254C2656.189349112426 925.1597633136093 2656.189349112426 888.0473372781064 2634.98224852071 866.8402366863904L2414.958579881657 646.8165680473371C2404.355029585799 636.2130177514791 2388.4497041420123 630.9112426035501 2375.1952662721897 630.9112426035501C2361.940828402367 630.9112426035501 2346.03550295858 636.2130177514791 2335.431952662722 646.8165680473371C2314.224852071006 668.0236686390531 2314.224852071006 702.4852071005917 2335.431952662722 723.6923076923076L2518.3431952662722 906.6035502958578L2335.431952662722 1089.5147928994083C2314.224852071006 1110.7218934911243 2314.224852071006 1145.1834319526627 2335.431952662722 1166.3905325443786C2356.639053254438 1187.5976331360946 2393.751479289941 1187.5976331360946 2414.958579881657 1166.3905325443786L2634.98224852071 946.3668639053254zM978.9298472899408 1412.3156101301774C1010.7404981775148 1412.3156101301774 1034.5984863431952 1388.457621964497 1034.5984863431952 1359.2978586508875L1034.5984863431952 1073.6094674556211C1034.5984863431952 1041.7988165680472 1010.7404981775148 1017.9408284023668 978.9298472899408 1017.9408284023668L718.3905325443787 1017.9408284023668C686.5798816568048 1017.9408284023668 662.7218934911243 1041.7988165680472 662.7218934911243 1073.6094674556211L662.7218934911243 1359.2978586508875C662.7218934911243 1388.457621964497 686.5798816568048 1412.3156101301774 718.3905325443787 1412.3156101301774L978.9298472899408 1412.3156101301774zM925.912095810651 1126.627218934911L925.912095810651 1303.6292195976332L774.0591715976332 1303.6292195976332L774.0591715976332 1126.627218934911L925.912095810651 1126.627218934911zM1933.24937391716 1412.3156101301774C1965.060024804734 1412.3156101301774 1988.9180129704143 1388.457621964497 1988.9180129704143 1359.2978586508875L1988.9180129704143 1073.6094674556211C1988.9180129704143 1041.7988165680472 1965.060024804734 1017.9408284023668 1933.24937391716 1017.9408284023668L1672.7100591715978 1017.9408284023668C1640.8994082840238 1017.9408284023668 1617.0414201183432 1041.7988165680472 1617.0414201183432 1073.6094674556211L1617.0414201183432 1359.2978586508875C1617.0414201183432 1388.457621964497 1640.8994082840238 1412.3156101301774 1672.7100591715978 1412.3156101301774L1933.24937391716 1412.3156101301774zM1880.23162243787 1126.627218934911L1880.23162243787 1303.6292195976332L1728.3786982248523 1303.6292195976332L1728.3786982248523 1126.627218934911L1880.23162243787 1126.627218934911z" />
    <glyph glyph-name="select"
      unicode="&#xF11A;"
      horiz-adv-x="1568" d=" M724.6015 456.8340000000001L44.401 1137.038C11.5955 1169.8435 11.5955 1223.0295 44.401 1255.8315L123.7355 1335.166C156.485 1367.9155 209.5625 1367.9785 242.389 1335.306L784 796.2325000000001L1325.6075 1335.306C1358.4340000000002 1367.9785 1411.5115 1367.9155 1444.261 1335.166L1523.5955 1255.8315C1556.4009999999998 1223.026 1556.4009999999998 1169.8400000000001 1523.5955 1137.038L843.3985 456.8340000000001C810.5930000000001 424.032 757.407 424.032 724.6015 456.8340000000001z" />
    <glyph glyph-name="telegram"
      unicode="&#xF11B;"
      horiz-adv-x="2048" d=" M1861.12 1698.56A90.88000000000001 90.88000000000001 0 0 0 1982.7199999999996 1596.16L1683.1999999999998 162.5600000000002A94.72 94.72 0 0 0 1534.7199999999998 106.2400000000002L1081.6 439.0400000000002L851.1999999999999 203.5200000000002A76.8 76.8 0 0 0 723.1999999999999 234.2400000000003L556.8 762.8800000000001L110.0799999999999 890.8800000000001A64 64 0 0 0 110.0799999999999 1012.4800000000002L1861.12 1698.56zM1640.9599999999998 1381.12A21.76 21.76 0 0 1 1615.36 1415.68L652.8 816.64A43.52 43.52 0 0 1 633.5999999999999 766.72L761.5999999999999 189.4400000000001A8.96 8.96 0 0 1 778.2399999999999 189.4400000000001L807.68 628.48A43.52 43.52 0 0 0 821.76 656.6400000000001L1640.96 1381.1200000000001z" />
    <glyph glyph-name="tumblr"
      unicode="&#xF11C;"
      horiz-adv-x="1792" d=" M1328 463L1408 226Q1385 191 1297 160T1120 128Q1016 126 929.5 154T787 228T692 334T636.5 454T620 572V1116H452V1331Q524 1357 581 1400.5T672 1490.5T730 1592.5T764 1691.5T779 1780Q780 1785 783.5 1788.5T791 1792H1035V1368H1368V1116H1034V598Q1034 568 1040.5 542T1063 489.5T1112.5 448T1194 434Q1272 436 1328 463z" />
    <glyph glyph-name="twitter"
      unicode="&#xF11D;"
      horiz-adv-x="1792" d=" M1684 1384Q1617 1286 1522 1217Q1523 1203 1523 1175Q1523 1045 1485 915.5T1369.5 667T1185 456.5T927 310.5T604 256Q333 256 108 401Q143 397 186 397Q411 397 587 535Q482 537 399 599.5T285 759Q318 754 346 754Q389 754 431 765Q319 788 245.5 876.5T172 1082V1086Q240 1048 318 1045Q252 1089 213 1160T174 1314Q174 1402 218 1477Q339 1328 512.5 1238.5T884 1139Q876 1177 876 1213Q876 1347 970.5 1441.5T1199 1536Q1339 1536 1435 1434Q1544 1455 1640 1512Q1603 1397 1498 1334Q1591 1344 1684 1384z" />
    <glyph glyph-name="user"
      unicode="&#xF11E;"
      horiz-adv-x="1792" d=" M895.524 1680C1085.7 1680 1287.384 1519.8155000000002 1287.384 1400.2555V1120.3955C1287.384 1012.6795 1242.584 806.5995 1122.4360000000001 711.9875A111.98249999999999 111.98249999999999 0 0 1 1080.4920000000002 610.8217500000001C1085.0840000000003 572.0417500000001 1109.5280000000002 538.52575 1144.976 522.2280000000001L1632.344 291.1160000000002C1636.152 289.3800000000001 1679.048 282.1840000000002 1679.048 222.2640000000001L1679.104 112.9520000000002L112 112.868V226.52C112 271.0400000000002 145.404 285.0137500000001 158.76 291.1737500000002L650.5502500000001 523.2657500000003C685.8302500000001 539.4497500000002 710.1640000000001 572.8257500000004 714.8960000000001 611.3257500000004C719.6560000000002 649.8257500000004 704.1160000000001 688.0457500000005 673.8480000000001 712.3217500000003C557.508 805.7297500000002 503.3000000000001 1011.0537500000002 503.3000000000001 1120.3955000000003V1400.2555000000002C503.32625 1517.23775 707.028 1680 895.524 1680zM895.524 1792.0035C648.228 1792.0035 391.30175 1585.612 391.30175 1400.2537499999999V1120.3937500000002C391.30175 998.11775 447.10575 750.7097500000002 603.73775 624.98975L111.91775 392.8697499999999S0.00175 343.0017499999999 0.00175 280.9257499999999V112.8697499999999C0.00175 51.0177499999998 50.12175 0.9257499999999 111.916 0.9257499999999H1679.132C1740.9840000000002 0.9257499999999 1791.076 51.01775 1791.076 112.8697499999999V280.9257499999999C1791.076 346.7257500000001 1679.132 392.8697499999999 1679.132 392.8697499999999L1191.7640000000001 623.9817500000001C1346.912 746.0897500000001 1399.412 985.9675 1399.412 1120.3955V1400.2555000000002C1399.412 1585.6155 1142.792 1792.0017500000001 895.524 1792.0017500000001z" />
    <glyph glyph-name="vimeo"
      unicode="&#xF11F;"
      horiz-adv-x="1792" d=" M1709 1274Q1699 1038 1377 623Q1044 192 815 192Q673 192 575 455Q531 615 443 937Q371 1199 286 1199Q268 1199 159 1123L82 1221Q106 1242 190 1317.5T320 1433Q476 1571 561 1579Q656 1588 714 1523.5T795 1320Q839 1033 861 947Q916 698 981 698Q1032 698 1135 859Q1236 1020 1244 1105Q1257 1244 1135 1244Q1078 1244 1014 1218Q1134 1611 1473 1600Q1724 1592 1709 1274z" />
    <glyph glyph-name="vk"
      unicode="&#xF120;"
      horiz-adv-x="3001.060240963855" d=" M2932.208578313253 1671.3098795180722C2953.075662650602 1740.8740240963855 2932.208578313253 1792 2832.9145060240967 1792H2504.589879518072C2421.1107469879516 1792 2382.647518072289 1747.8477108433735 2361.7696385542167 1699.1290602409638C2361.7696385542167 1699.1290602409638 2194.8005783132526 1292.1831325301205 1958.2781686746985 1027.841542168675C1881.7511325301205 951.3145060240965 1846.9798554216864 926.9821686746988 1805.2348915662649 926.9821686746988C1784.3570120481927 926.9821686746988 1754.152096385542 951.3145060240965 1754.152096385542 1020.8786506024098V1671.3098795180722C1754.152096385542 1754.7998072289156 1729.9277108433735 1791.9892048192771 1660.3419759036144 1791.9892048192771H1144.4186987951807C1092.2671807228915 1791.9892048192771 1060.8855903614458 1753.2453012048193 1060.8855903614458 1716.5308915662652C1060.8855903614458 1637.3698313253012 1179.125204819277 1619.1259759036145 1191.3237590361446 1396.5293493975905V913.0563855421688C1191.3237590361446 807.0585060240965 1172.1839036144577 787.8322891566266 1130.438939759036 787.8322891566266C1019.140626506024 787.8322891566266 748.4190843373494 1196.6349879518073 587.8299759036144 1664.368578313253C556.3620240963854 1755.2747951807228 524.7861204819277 1792 440.8751807228916 1792H112.5613493975904C18.7512289156627 1792 0 1747.8477108433735 0 1699.1290602409638C0 1612.1738795180722 111.3199036144578 1180.85243373494 518.2766265060241 610.4350843373495C789.5811084337348 220.8801927710847 1171.8168674698793 9.7048674698797 1519.6375903614457 9.7048674698797C1728.3624096385543 9.7048674698797 1754.152096385542 56.6099277108435 1754.152096385542 137.4010602409642V431.8288192771086C1754.152096385542 525.6389397590362 1773.9288674698794 544.3469879518075 1840.0061686746988 544.3469879518075C1888.7140240963856 544.3469879518075 1972.1823614457833 520.0038554216869 2166.9921927710843 332.1785060240966C2389.588819277108 109.5602891566266 2426.270843373494 9.7048674698797 2551.494939759036 9.7048674698797H2879.81956626506C2973.6296867469878 9.7048674698797 3020.5239518072285 56.6099277108435 2993.4604337349397 149.1786024096387C2963.8600481927706 241.4234216867469 2857.5814939759034 375.2296867469879 2716.542457831325 533.9188433734939C2640.02621686747 624.3608674698794 2525.2302650602405 721.7549879518072 2490.480578313253 770.4412530120482C2441.772722891566 833.0533012048191 2455.6769156626506 860.8940722891566 2490.480578313253 916.5432289156626C2490.480578313253 916.5432289156626 2890.463614457831 1480.0084819277108 2932.208578313253 1671.320674698795z" />
    <glyph glyph-name="warning"
      unicode="&#xF121;"
      horiz-adv-x="2016" d=" M871.1111111111111 1075.5555555555557Q869.3333333333333 1093.3333333333335 881.7777777777777 1106.6666666666667T912 1120H1104Q1121.7777777777778 1120 1134.2222222222222 1106.6666666666667T1144.888888888889 1075.5555555555557L1121.7777777777778 682.6666666666667Q1121.7777777777778 666.6666666666667 1109.3333333333333 655.1111111111111T1080.888888888889 643.5555555555557H935.111111111111Q919.111111111111 643.5555555555557 906.6666666666666 655.1111111111111T894.2222222222222 682.6666666666667zM1155.5555555555554 448Q1155.5555555555554 387.5555555555557 1112 344T1008 300.4444444444446T904 344T860.4444444444443 448T904 552T1008 595.5555555555557T1112 552T1155.5555555555554 448zM1153.7777777777776 1708.4444444444443L1992.8888888888887 252.4444444444446Q2040.8888888888887 168.8888888888889 1992.8888888888887 84.4444444444446T1847.1111111111113 0H168.8888888888889Q71.1111111111111 0 23.1111111111111 84.4444444444446T23.1111111111111 252.4444444444446L862.2222222222222 1708.4444444444443Q910.2222222222222 1792 1008 1792T1153.7777777777776 1708.4444444444443zM186.6666666666667 199.1111111111113Q183.1111111111111 192 184 184.8888888888889T191.1111111111111 173.3333333333335T204.4444444444444 168.8888888888889H1811.5555555555557Q1824 168.8888888888889 1830.222222222222 178.6666666666668T1829.3333333333333 199.1111111111113L1025.7777777777778 1592.888888888889Q1020.4444444444443 1603.5555555555557 1008 1603.5555555555557T990.2222222222222 1592.888888888889z" />
    <glyph glyph-name="wc-error"
      unicode="&#xF122;"
      horiz-adv-x="1792" d=" M896 1792C403.2 1792 0 1388.8 0 896C0 403.2000000000001 403.2 0 896 0C1388.8 0 1792 403.2000000000001 1792 896C1792 1388.8 1388.8 1792 896 1792zM985.6 448H806.4V627.2H985.6V448zM985.6 806.4000000000001H806.4V1344H985.6V806.4000000000001z" />
    <glyph glyph-name="wc-notice"
      unicode="&#xF123;"
      horiz-adv-x="1971.1999999999998" d=" M1953.74592 244.0345600000003L1097.3849599999999 1727.531008C1047.74656 1813.489664 923.4534399999998 1813.489664 873.813248 1727.531008L17.455424 244.0345600000003C-32.1827072 158.0812799999999 29.965824 50.3283199999999 129.241728 50.3283199999999H1841.96096C1941.23776 50.3283199999999 2003.38432 158.0812799999999 1953.74592 244.0345600000003zM986.8096 1270.6991360000002C1041.6985599999998 1270.6991360000002 1086.0864 1225.09632 1084.4736 1170.21184L1068.3276799999999 606.8428800000002C1067.11808 562.4460800000002 1030.8032 527.3408000000002 986.4064 527.3408000000002C942.01856 527.3408000000002 905.69472 562.8492800000001 904.48512 606.8428800000002L888.7450879999999 1170.21184C887.5345919999999 1225.09632 931.5263999999999 1270.6991360000002 986.8096 1270.6991360000002zM985.6 251.7043200000001C929.50144 251.7043200000001 883.9022079999999 297.3107200000002 883.9022079999999 353.40032C883.9022079999999 409.4988800000001 929.50144 455.0963200000001 985.6 455.0963200000001C1041.6985599999998 455.0963200000001 1087.2959999999998 409.4988800000001 1087.2959999999998 353.40032C1087.2959999999998 297.3107200000002 1041.6985599999998 251.7043200000001 985.6 251.7043200000001z" />
    <glyph glyph-name="wc-success"
      unicode="&#xF124;"
      horiz-adv-x="1792" d=" M896 1792C401.9594472727273 1792 0 1390.0747636363635 0 896C0 401.9211636363637 401.9594472727273 0 896 0C1390.038109090909 0 1792 401.9211636363637 1792 896C1792 1390.0747636363635 1390.038109090909 1792 896 1792zM1395.52 1194.816L844.137890909091 574.5070545454546C830.5594181818182 559.2424727272728 811.6383418181817 551.3821090909091 792.5812363636363 551.3821090909091C777.4526836363636 551.3821090909091 762.2548945454546 556.3508363636363 749.5382109090908 566.4756363636363L404.9227636363636 842.1748363636364C375.2171054545455 865.9188363636363 370.3925527272727 909.3015272727272 394.1707636363637 939.0405818181817C417.9147636363637 968.7796363636364 461.3365527272728 973.609890909091 491.0422109090909 949.8251636363636L784.5514472727273 715.0405818181819L1292.48 1286.4491054545454C1317.7064727272727 1314.9142109090908 1361.3335272727275 1317.4645527272728 1389.7611636363638 1292.1696581818182C1418.2295272727274 1266.8405527272728 1420.8116363636364 1223.2811054545455 1395.52 1194.816z" />
    <glyph glyph-name="whatsapp"
      unicode="&#xF125;"
      horiz-adv-x="1792" d=" M1424.4906666666668 1423.8933333333334A740.0960000000001 740.0960000000001 0 0 1 896.8960000000001 1642.6666666666667C485.6320000000001 1642.6666666666667 151.0506666666667 1308.1599999999999 151.0506666666667 897.1946666666666A740.0213333333334 740.0213333333334 0 0 1 250.5066666666667 524.3839999999998L144.704 137.9839999999999L540.1386666666667 241.7706666666666A746.8906666666668 746.8906666666668 0 0 1 896.5973333333334 150.8266666666666H896.896C1307.8613333333333 150.8266666666666 1642.368 485.3333333333333 1642.6666666666667 896.5973333333333A740.544 740.544 0 0 1 1424.4906666666668 1423.8933333333332zM1261.7173333333335 630.56C1246.2613333333334 587.1039999999998 1170.1760000000002 545.1413333333335 1136.0533333333333 542.2293333333332C1101.632 539.0186666666666 1069.6 526.7733333333333 912.352 588.5226666666667C722.6986666666666 663.1893333333335 603.2320000000001 857.4720000000001 593.824 870.016C584.4906666666667 882.2613333333334 517.9626666666667 970.9653333333334 517.9626666666667 1062.5066666666667C517.9626666666667 1154.3466666666668 566.1226666666666 1199.2959999999998 583.072 1217.9626666666668C600.2453333333334 1236.6293333333333 620.4053333333334 1241.3333333333333 632.9493333333332 1241.3333333333333C645.1946666666665 1241.3333333333333 657.7386666666666 1241.3333333333333 668.4906666666667 1240.7359999999999C681.9306666666666 1240.4373333333333 696.4906666666667 1239.616 710.528 1208.6293333333333C727.104 1171.8933333333334 763.3173333333334 1079.7546666666667 768.0213333333334 1070.4213333333332C772.6506666666667 1061.088 775.8613333333334 1049.9626666666668 769.44 1037.7173333333333C763.3173333333333 1025.1733333333332 760.1066666666667 1017.5573333333334 751.072 1006.5066666666665C741.7386666666666 995.7546666666666 731.5093333333333 982.3146666666667 723.072 974.176C713.7386666666666 964.8426666666666 704.1066666666667 954.6133333333333 714.8586666666667 935.9466666666666C725.6853333333333 917.28 763.0186666666667 856.3519999999999 818.4213333333335 807.072C889.5786666666667 743.4559999999999 949.6853333333333 723.8933333333332 968.3520000000002 714.56S997.7706666666668 706.72 1008.5973333333334 719.2639999999999C1019.6480000000003 731.5093333333334 1055.2640000000001 773.4720000000001 1067.808 792.1386666666667C1080.0533333333333 810.8053333333334 1092.5973333333334 807.5946666666667 1109.472 801.4720000000001C1126.6453333333334 795.3493333333333 1218.2613333333334 750.1760000000002 1236.928 740.8426666666667S1267.8400000000001 726.8053333333335 1272.544 719.1893333333335C1277.1733333333334 711.3493333333336 1277.1733333333334 674.0160000000001 1261.7173333333335 630.5600000000002z" />
    <glyph glyph-name="y-quote"
      unicode="&#xF126;"
      horiz-adv-x="2329.6" d=" M1612.8 716.8000000000002H1688.7584C1631.0112 616.6048000000001 1558.7264000000002 514.7520000000002 1497.8432 443.0944C1401.7696 330.0640000000001 1415.232 160.4736 1528.2848 64.3104000000001A267.45599999999996 267.45599999999996 0 0 1 1702.3999999999999 0C1778.3584 0 1853.6 31.9424000000001 1906.8 94.2367999999999C1977.4944 176.9151999999999 2329.6 537.6000000000001 2329.6 985.6V1433.6C2329.6 1631.5264 2169.1263999999996 1792 1971.2 1792H1612.8C1414.8736 1792 1254.3999999999999 1631.5264 1254.3999999999999 1433.6V1075.2C1254.3999999999999 877.296 1414.8736 716.8000000000002 1612.8 716.8000000000002zM1433.6 1433.6C1433.6 1532.384 1513.9263999999998 1612.8 1612.8 1612.8H1971.2C2069.8944 1612.8 2150.3999999999996 1532.384 2150.3999999999996 1433.6V985.6C2150.3999999999996 639.5424 1881.6 336.2688000000001 1793.3887999999997 236.6112000000001L1770.4736 210.6048000000001A88.61439999999999 88.61439999999999 0 0 0 1702.3999999999999 179.2000000000001A88.928 88.928 0 0 0 1644.2944 200.8160000000003A89.59999999999998 89.59999999999998 0 0 0 1634.4832 327.0848000000001C1705.5359999999998 410.8160000000003 1783.936 522.9952000000003 1843.968 627.2896000000003A178.6624 178.6624 0 0 1 1843.7888 806.4896000000002A178.7072 178.7072 0 0 1 1688.7584 896H1612.8C1513.9263999999998 896 1433.6 976.4160000000002 1433.6 1075.2V1433.6zM358.4 716.8000000000002H434.336C376.5888 616.6048000000001 304.3264 514.7520000000002 243.4432 443.0944C147.3696 330.0640000000001 160.832 160.4736 273.8624 64.3104000000001A267.67999999999995 267.67999999999995 0 0 1 448.1791999999999 0C523.9584 0 599.3792 31.9424000000001 652.4 94.2367999999999C723.0944 176.9151999999999 1075.1999999999998 537.6000000000001 1075.1999999999998 985.6V1433.6C1075.1999999999998 1631.5264 914.7263999999998 1792 716.8 1792H358.4C160.4736 1792 0 1631.5264 0 1433.6V1075.2C0 877.296 160.4736 716.8000000000002 358.4 716.8000000000002zM179.2 1433.6C179.2 1532.384 259.5264 1612.8 358.4 1612.8H716.8C815.6736 1612.8 896 1532.384 896 1433.6V985.6C896 639.2736000000002 627.1999999999999 336 538.832 236.4544000000001L516.0736 210.5376000000001A88.41279999999999 88.41279999999999 0 0 0 448.1791999999999 179.2000000000001A89.77919999999997 89.77919999999997 0 0 0 379.9264 327.0848000000001C451.1359999999999 410.8160000000003 529.5583999999999 522.9952000000003 589.568 627.2896000000003A179.08800000000002 179.08800000000002 0 0 1 434.336 896H358.4C259.5264 896 179.2 976.4160000000002 179.2 1075.2V1433.6z" />
    <glyph glyph-name="y-watch"
      unicode="&#xF127;"
      horiz-adv-x="1792" d=" M896 1764C416.5 1764 28 1375.5 28 896S416.5 28 896 28S1764 416.5 1764 896S1375.5 1764 896 1764zM896 196C509.25 196 196 509.25 196 896S509.25 1596 896 1596S1596 1282.75 1596 896S1282.75 196 896 196zM1112.3 561.3999999999999L815.15 777.3499999999999C804.3000000000001 785.3999999999999 798 797.9999999999998 798 811.2999999999998V1386C798 1409.1 816.9 1428 840 1428H952C975.1000000000003 1428 994 1409.1 994 1386V890.0500000000001L1227.8 719.95C1246.7 706.3 1250.55 680.05 1236.9 661.1499999999999L1171.1000000000001 570.5C1157.4500000000003 551.95 1131.2000000000003 547.75 1112.3 561.3999999999999z" />
    <glyph glyph-name="youtube"
      unicode="&#xF128;"
      horiz-adv-x="2016" d=" M1923.7925 1357.7095C1901.809 1440.4845 1837.0379999999996 1505.6755 1754.7984999999999 1527.799C1605.7335 1568 1008 1568 1008 1568S410.27 1568 261.2015 1527.799C178.962 1505.672 114.191 1440.4845 92.2075 1357.7095C52.2655 1207.6750000000002 52.2655 894.6419999999998 52.2655 894.6419999999998S52.2655 581.6089999999999 92.2075 431.5745C114.191 348.7994999999999 178.962 286.3245 261.2015 264.201C410.27 224 1008 224 1008 224S1605.73 224 1754.7984999999999 264.201C1837.0379999999996 286.3245000000002 1901.809 348.7994999999999 1923.7925 431.5745000000002C1963.7345 581.6090000000002 1963.7345 894.642 1963.7345 894.642S1963.7345 1207.6750000000002 1923.7925 1357.7095000000002zM812.5074999999999 610.4314999999999V1178.8525L1312.094 894.635L812.5075 610.4314999999999z" />
    <glyph glyph-name="z-404"
      unicode="&#xF129;"
      horiz-adv-x="1774.2574257425745" d=" M1366.1622495049505 1371.3572752475247L1769.0606257425743 1774.2560063366336L1756.5148514851487 1786.8019757623763L1353.616475247525 1383.9030495049506L1155.0114217821783 1582.5152C1136.4580118811882 1601.0437702970296 1111.3079128712873 1616.945375049505 1079.5167683168318 1630.1987231683167C1047.7380435643565 1643.4380546534653 1018.5976396039604 1650.059405940594 992.1186217821784 1650.059405940594L356.3028277227724 1650.059405940594C329.8167128712871 1650.059405940594 307.2978376237624 1640.7937013861385 288.7550732673268 1622.2480982178217C270.2105346534654 1603.7122534653465 260.9400396039605 1581.1933782178219 260.9400396039605 1554.698392079208L260.9400396039605 291.2283881188119L0 30.2865742574254L12.5458984554455 17.7425742574255L260.9400396039605 266.1368396039602L260.9400396039605 219.5590336633663C260.9400396039605 193.0569504950495 270.2105346534654 170.5380752475246 288.7550732673268 151.9988594059405C307.3013861386139 133.4702891089107 329.8167128712871 124.1944712871284 356.3063762376238 124.1944712871284L1437.1431920792081 124.1944712871284C1463.6257584158418 124.1944712871284 1486.1304396039604 133.4702891089107 1504.6696554455445 151.9988594059405C1523.207097029703 170.5522693069306 1532.484689108911 193.0569504950495 1532.484689108911 219.5590336633663L1532.484689108911 1109.6525306930694C1532.4953346534655 1136.1457425742574 1525.8738059405941 1165.2896950495049 1512.634297029703 1197.0737425742573C1499.3912396039605 1228.8595643564356 1483.506312871287 1254.0167603960394 1464.9546772277229 1272.561299009901L1366.1622495049505 1371.3572752475247zM1263.7166257425743 1294.0049742574256L1064.607683168317 1493.1139168316831C1056.6536871287128 1501.0519445544555 1043.0788435643565 1508.3441425742574 1023.8831524752476 1514.9656712871288L1023.8831524752476 1141.4383524752475L1111.1500039603961 1141.4383524752475L1263.7166257425743 1294.0049742574256zM1136.2433267326733 1141.4383524752475L1276.2624 1281.4592L1375.5533940594062 1182.168205940594C1383.4825504950497 1174.21420990099 1390.7729742574259 1160.6446891089108 1397.3909544554458 1141.4383524752475L1136.2433267326733 1141.4383524752475zM1405.3484990099012 1014.2773227722772L1405.3484990099012 251.3448554455445L388.0904237623763 251.3448554455445L388.0904237623763 393.2854495049505L518.1080079207921 523.3030336633663C519.5717702970297 520.091627722772 521.5944237623763 517.1960396039603 524.1795168316833 514.6127207920792C530.1481188118812 508.6583128712871 537.7667801980199 505.681108910891 547.0301782178218 505.681108910891L1246.4034217821784 505.681108910891C1255.6685940594061 505.681108910891 1263.292578217822 508.6583128712871 1269.2416633663368 514.6127207920792C1275.1925227722772 520.5653544554455 1278.1697267326733 528.1822415841582 1278.1697267326733 537.4722534653465L1278.1697267326733 601.056316831683C1278.1697267326733 610.3179405940593 1275.196071287129 617.941924752475 1269.2416633663368 623.89100990099C1263.2748356435643 629.8312237623761 1255.6544000000001 632.8208475247523 1246.4034217821784 632.8208475247523L627.6240475247525 632.8208475247523L754.7974970297031 759.9925227722772L1246.4034217821784 759.9925227722772C1255.6685940594061 759.9925227722772 1263.292578217822 762.9679524752473 1269.2416633663368 768.9205861386138C1275.1925227722772 774.8749940594058 1278.1697267326733 782.4936554455445 1278.1697267326733 791.7712475247524L1278.1697267326733 855.3446653465345C1278.1697267326733 864.6098376237624 1275.196071287129 872.2338217821781 1269.2416633663368 878.2077465346533C1263.2748356435643 884.1532831683166 1255.6544000000001 887.128712871287 1246.4034217821784 887.128712871287L881.9336871287129 887.128712871287L1009.0822970297032 1014.2773227722772L1405.3484990099012 1014.2773227722772zM896.7114772277229 1522.9019247524752L896.7114772277229 1109.6418851485148C896.7114772277229 1083.1504475247525 905.9748752475248 1060.6368950495048 924.5194138613862 1042.0923564356435C941.2222732673268 1025.4054653465346 961.125893069307 1016.221908910891 984.2675326732674 1014.554106930693L984.2675326732674 1014.554106930693L856.8421386138615 887.128712871287L547.0301782178218 887.128712871287C537.7667801980199 887.128712871287 530.1481188118812 884.1532831683166 524.1795168316833 878.2077465346533C518.2339801980198 872.2497900990098 515.2443564356436 864.6346772277227 515.2443564356436 855.3446653465345L515.2443564356436 855.3446653465345L515.2443564356436 791.7712475247524C515.2443564356436 782.4936554455445 518.2233346534654 774.8749940594058 524.1795168316833 768.9205861386138C530.1481188118812 762.9679524752473 537.7667801980199 759.9925227722772 547.0301782178218 759.9925227722772L547.0301782178218 759.9925227722772L729.7059485148516 759.9925227722772L602.532499009901 632.8208475247523L547.0301782178218 632.8208475247523C537.7650059405942 632.8208475247523 530.1445702970298 629.8454178217821 524.1795168316833 623.89100990099C518.2339801980198 617.9383762376237 515.2443564356436 610.3179405940593 515.2443564356436 601.056316831683L515.2443564356436 601.056316831683L515.2443564356436 545.5327049504949L388.0904237623763 418.3787722772277L388.0904237623763 1522.9019247524752L896.7114772277229 1522.9019247524752z" />
    <glyph glyph-name="z-angle-left-solid"
      unicode="&#xF12A;"
      horiz-adv-x="896" d=" M110.95 955.5L586.9499999999999 1431.5C619.85 1464.4 673.05 1464.4 705.6 1431.5L784.6999999999999 1352.4C817.6 1319.5 817.6 1266.3000000000002 784.6999999999999 1233.75L447.6500000000001 896L785.0500000000001 558.6000000000001C817.95 525.7000000000003 817.95 472.5 785.0500000000001 439.9500000000003L705.9499999999999 360.5C673.05 327.6000000000002 619.85 327.6000000000002 587.3 360.5L111.2999999999999 836.5C78.0499999999999 869.3999999999999 78.0499999999999 922.6 110.9499999999999 955.5z" />
    <glyph glyph-name="z-angle-right-solid"
      unicode="&#xF12B;"
      horiz-adv-x="896" d=" M785.0500000000001 836.5L309.0500000000001 360.5C276.1500000000001 327.6000000000002 222.9500000000001 327.6000000000002 190.4 360.5L111.3 439.6000000000002C78.4000000000001 472.5 78.4000000000001 525.7000000000003 111.3 558.25L448.7000000000001 895.6499999999999L111.3 1233.05C78.4000000000001 1265.9499999999998 78.4000000000001 1319.1499999999999 111.3 1351.6999999999998L190.05 1431.5C222.95 1464.4 276.1500000000001 1464.4 308.7 1431.5L784.6999999999999 955.5C817.9499999999999 922.6 817.9499999999999 869.3999999999999 785.05 836.5z" />
    <glyph glyph-name="z-angle-right"
      unicode="&#xF12C;"
      horiz-adv-x="1045.0340681362725" d=" M149.0340681362726 1792C164.5964569138277 1792 178.3614589178357 1786.0152945891784 190.3326653306613 1774.0440881763527L1027.0781563126252 937.2985971943888C1039.049362725451 925.3273907815632 1045.0340681362725 911.562388777555 1045.0340681362725 896S1039.049362725451 866.672609218437 1027.0781563126252 854.7014028056112L190.3326653306613 17.9559118236473C178.3614589178357 5.9847054108216 164.5964569138277 0 149.0340681362726 0S119.7066773547094 5.9847054108216 107.7354709418838 17.9559118236473L17.9559118236473 107.7354709418837C5.9847054108216 119.7066773547094 0 133.4716793587175 0 149.0340681362725S5.9847054108216 178.3614589178355 17.9559118236473 190.3326653306613L723.623246492986 896L17.9559118236473 1601.6673346693387C5.9847054108216 1613.6385410821642 0 1627.4035430861722 0 1642.9659318637275S5.9847054108216 1672.2933226452906 17.9559118236473 1684.2645290581163L107.7354709418838 1774.0440881763527C119.7066773547094 1786.0152945891784 133.4716793587175 1792 149.0340681362726 1792z" />
    <glyph glyph-name="z-arrow-right"
      unicode="&#xF12D;"
      horiz-adv-x="1568" d=" M666.75 1557.85L744.4499999999999 1635.55C777.35 1668.45 830.55 1668.45 863.1 1635.55L1543.5 955.5C1576.3999999999999 922.6 1576.3999999999999 869.3999999999999 1543.5 836.8500000000001L863.1 156.4500000000001C830.1999999999999 123.55 777 123.55 744.4499999999999 156.4500000000001L666.75 234.1499999999999C633.5 267.3999999999999 634.1999999999999 321.6499999999999 668.15 354.2000000000001L1089.8999999999999 756H84C37.45 756 0 793.4499999999999 0 840V952C0 998.55 37.45 1036 84 1036H1089.8999999999999L668.15 1437.8C633.85 1470.35 633.15 1524.6 666.75 1557.85z" />
    <glyph glyph-name="z-cal"
      unicode="&#xF12E;"
      horiz-adv-x="1568" d=" M0 168C0 75.25 75.25 0 168 0H1400C1492.75 0 1568 75.25 1568 168V1120H0V168zM1120 854C1120 877.1000000000001 1138.8999999999999 896 1162 896H1302C1325.1000000000001 896 1344 877.1000000000001 1344 854V714C1344 690.8999999999999 1325.1000000000001 672 1302 672H1162C1138.8999999999999 672 1120 690.8999999999999 1120 714V854zM1120 406C1120 429.1000000000002 1138.8999999999999 448 1162 448H1302C1325.1000000000001 448 1344 429.1000000000002 1344 406V266C1344 242.8999999999999 1325.1000000000001 224 1302 224H1162C1138.8999999999999 224 1120 242.8999999999999 1120 266V406zM672 854C672 877.1000000000001 690.9 896 714 896H854C877.1 896 896 877.1000000000001 896 854V714C896 690.8999999999999 877.1 672 854 672H714C690.9 672 672 690.8999999999999 672 714V854zM672 406C672 429.1000000000002 690.9 448 714 448H854C877.1 448 896 429.1000000000002 896 406V266C896 242.8999999999999 877.1 224 854 224H714C690.9 224 672 242.8999999999999 672 266V406zM224 854C224 877.1000000000001 242.9000000000001 896 266 896H406C429.1 896 448 877.1000000000001 448 854V714C448 690.8999999999999 429.1 672 406 672H266C242.9000000000001 672 224 690.8999999999999 224 714V854zM224 406C224 429.1000000000002 242.9000000000001 448 266 448H406C429.1 448 448 429.1000000000002 448 406V266C448 242.8999999999999 429.1 224 406 224H266C242.9000000000001 224 224 242.8999999999999 224 266V406zM1400 1568H1232V1736C1232 1766.8 1206.8 1792 1176 1792H1064C1033.2 1792 1008 1766.8 1008 1736V1568H560V1736C560 1766.8 534.8000000000001 1792 504 1792H392C361.2 1792 336 1766.8 336 1736V1568H168C75.25 1568 0 1492.75 0 1400V1232H1568V1400C1568 1492.75 1492.75 1568 1400 1568z" />
    <glyph glyph-name="z-cart-empty"
      unicode="&#xF12F;"
      horiz-adv-x="1774.2574257425745" d=" M643.1700910891091 1189.0292594059406C643.1700910891091 1152.302130693069 613.3625663366337 1122.4946059405938 576.6354376237625 1122.4946059405938C539.9083089108912 1122.4946059405938 510.1007841584159 1152.302130693069 510.1344950495049 1189.0292594059406V1448.514407920792C510.1344950495049 1637.9057425742574 664.2287524752476 1792 853.5863762376238 1792C1042.9759366336634 1792 1197.070194059406 1637.9057425742574 1197.070194059406 1448.514407920792V1204.417394059406L1263.6243643564358 1270.96979009901V1271.9988594059405H1264.6516594059408L1761.7134257425746 1769.0593837623762L1774.2574257425745 1756.5134320792079L1289.743207920792 1271.9988594059405H1616.8240158415842C1635.2195168316834 1271.9988594059405 1646.5304079207924 1257.5599524752474 1642.2065425742576 1239.6967287128714L1409.4683247524754 291.6435643564355C1395.3292673267329 238.3839049504948 1339.307089108911 195.1683168316831 1284.1507485148516 195.1683168316831H419.2002534653466C368.153093069307 195.1683168316831 316.3075168316832 232.1988435643564 297.7434613861387 279.9973386138611L17.7439936633663 -2e-13L5.1980242376238 12.5439999999996L292.0463207920793 299.3917465346533L61.1769283168317 1239.6967287128714C56.8188198019802 1257.528015841584 68.1630669306931 1271.9988594059405 86.5266312871287 1271.9988594059405H443.6175841584159V1189.0292594059406C443.6175841584159 1115.642423762376 503.3000554455446 1055.9599524752475 576.6868910891089 1055.9599524752475C650.075500990099 1055.9599524752475 709.756198019802 1115.642423762376 709.756198019802 1189.0292594059406V1271.9988594059405H997.4857504950496V1189.0292594059406C997.4857504950496 1139.229401980198 1024.983192079208 1095.7405782178216 1065.5835247524753 1072.9289504950493L1116.609394059406 1123.956594059406C1086.5605702970297 1130.3634376237624 1064.000887128713 1157.0784316831682 1064.000887128713 1189.0292594059406V1448.514407920792C1064.000887128713 1564.5171326732673 969.589100990099 1658.930693069307 853.5863762376238 1658.930693069307C737.5499405940594 1658.930693069307 643.1700910891091 1564.5171326732673 643.1700910891091 1448.514407920792V1189.0292594059406zM1082.63059009901 1064.8862415841584L1263.6243643564358 1245.8782415841583V1189.0292594059406C1263.6243643564358 1115.642423762376 1203.941893069307 1055.9599524752475 1130.5550574257427 1055.9599524752475C1113.6694495049505 1055.9599524752475 1097.5077386138614 1059.1234534653463 1082.63059009901 1064.8862415841584zM301.2653623762377 290.5452990099009L1075.4519445544554 1064.7318811881187L1069.921584158416 1070.2604673267324L295.7367762376238 296.0756594059403L301.2653623762377 290.5452990099009z" />
    <glyph glyph-name="z-cart"
      unicode="&#xF130;"
      horiz-adv-x="2016" d=" M1931.9685 1568H452.48L423.3285 1723.4805000000001C415.877 1763.209 381.1885 1792 340.767 1792H42C18.8055 1792 0 1773.1945 0 1750V1722C0 1698.8055 18.8055 1680 42 1680H317.52L562.2645 374.6889999999999C526.0675 334.9009999999999 504 282.03 504 224C504 100.289 604.289 0 728 0S952 100.289 952 224A222.8835 222.8835 0 0 1 921.9595 336H1430.0439999999999A222.8835 222.8835 0 0 1 1400.0034999999998 224C1400.0034999999998 100.289 1500.2924999999998 0 1624.0034999999998 0C1747.7144999999998 0 1848.0035 100.289 1848.0035 224C1848.0035 286.9755 1821.9810000000004 343.8400000000002 1780.1455 384.538C1771.077 420.3815 1738.6599999999999 448 1698.648 448H662.48L620.48 672H1780.3134999999997C1820.1015 672 1854.433 699.9159999999999 1862.5494999999996 738.8675000000001L2014.208 1466.8675C2025.072 1519.0315 1985.2525 1568 1931.9685 1568zM840 224C840 162.2425000000001 789.7575 112 728 112S616 162.2425000000001 616 224S666.2425 336 728 336S840 285.7575 840 224zM1624 112C1562.2425 112 1512 162.2425000000001 1512 224S1562.2425 336 1624 336S1736 285.7575 1736 224S1685.7575 112 1624 112zM1757.546 784H599.48L473.48 1456H1897.546L1757.5459999999998 784z" />
    <glyph glyph-name="z-close-round"
      unicode="&#xF131;"
      horiz-adv-x="1792" d=" M896 1792C1390.8496 1792 1792 1390.84736 1792 896C1792 401.1504 1390.8496 0 896 0C401.15264 0 0 401.1504 0 896C0 1390.84736 401.15264 1792 896 1792zM1271.5808000000002 1343.9944L899.39024 971.80048L527.19632 1343.9944L448 1264.7992L820.1950400000001 892.6041600000001L479.62544 552.0368000000001L558.82176 472.8416L899.39024 813.4078400000001L1239.9632 472.8416L1319.1584 552.0368000000001L978.58656 892.6041600000001L1350.7759999999998 1264.7992L1271.5808000000002 1343.9944z" />
    <glyph glyph-name="z-comment-solid"
      unicode="&#xF132;"
      horiz-adv-x="1792" d=" M896 1680C401.1 1680 0 1354.15 0 952C0 778.3999999999999 74.9 619.5 199.5 494.55C155.75 318.1499999999999 9.45 161 7.7 159.25C0 151.2000000000001 -2.1 139.3 2.45 128.8S16.8 112 28 112C260.05 112 434 223.3 520.1 291.8999999999999C634.5500000000001 248.8499999999999 761.6 224 896 224C1390.8999999999999 224 1792 549.8500000000001 1792 952S1390.8999999999999 1680 896 1680z" />
    <glyph glyph-name="z-comment"
      unicode="&#xF133;"
      horiz-adv-x="1792" d=" M896 1680C401.1 1680 0 1354.15 0 952C0 785.3999999999999 69.65 632.8 185.15 509.95C133 372.05 24.5 255.1499999999999 22.75 253.75C-0.35 229.25 -6.65 193.55 6.65 162.75S50.4 112 84 112C299.25 112 469 201.9500000000001 570.85 274.05C672 242.2000000000001 781.1999999999999 224 896 224C1390.8999999999999 224 1792 549.8500000000001 1792 952S1390.8999999999999 1680 896 1680zM896 392C802.5500000000001 392 710.15 406.3500000000002 621.6 434.3500000000002L542.15 459.55L473.9 411.25C423.85 375.8999999999999 355.25 336.3500000000002 272.6500000000001 309.75C298.2 352.1000000000002 323.0500000000001 399.7000000000001 342.3000000000001 450.45L379.4000000000001 548.8L307.3000000000001 625.1000000000001C243.95 692.6499999999999 168 804.3000000000001 168 952C168 1260.6999999999998 494.5500000000001 1512 896 1512S1624 1260.6999999999998 1624 952S1297.45 392 896 392z" />
    <glyph glyph-name="z-filter"
      unicode="&#xF134;"
      horiz-adv-x="1642.6666666666667" d=" M0 1792H1137.2315733333332V1539.2817066666667H0V1792zM0 1033.8481066666668H1389.9483733333334V781.1298133333333H0V1033.8481066666668zM1642.6666666666667 275.6991999999998H0V22.9823999999999H1642.6666666666667V275.6991999999998z" />
    <glyph glyph-name="z-grid"
      unicode="&#xF135;"
      horiz-adv-x="1792" d=" M0 1792L527.0588235294117 1792L527.0588235294117 1264.9411764705883L0 1264.9411764705883L0 1792zM105.4117647058824 1686.5882352941176L105.4117647058824 1370.3529411764707L421.6470588235294 1370.3529411764707L421.6470588235294 1686.5882352941176L105.4117647058824 1686.5882352941176zM1264.9411764705883 1792L1792 1792L1792 1264.9411764705883L1264.9411764705883 1264.9411764705883L1264.9411764705883 1792zM1370.3529411764705 1686.5882352941176L1370.3529411764705 1370.3529411764707L1686.5882352941176 1370.3529411764707L1686.5882352941176 1686.5882352941176L1370.3529411764705 1686.5882352941176zM632.4705882352941 1792L1159.5294117647059 1792L1159.5294117647059 1264.9411764705883L632.4705882352941 1264.9411764705883L632.4705882352941 1792zM737.8823529411765 1686.5882352941176L737.8823529411765 1370.3529411764707L1054.1176470588234 1370.3529411764707L1054.1176470588234 1686.5882352941176L737.8823529411765 1686.5882352941176zM0 1159.5294117647059L527.0588235294117 1159.5294117647059L527.0588235294117 632.4705882352941L0 632.4705882352941L0 1159.5294117647059zM105.4117647058824 1054.1176470588234L105.4117647058824 737.8823529411766L421.6470588235294 737.8823529411766L421.6470588235294 1054.1176470588234L105.4117647058824 1054.1176470588234zM1264.9411764705883 1159.5294117647059L1792 1159.5294117647059L1792 632.4705882352941L1264.9411764705883 632.4705882352941L1264.9411764705883 1159.5294117647059zM1370.3529411764705 1054.1176470588234L1370.3529411764705 737.8823529411766L1686.5882352941176 737.8823529411766L1686.5882352941176 1054.1176470588234L1370.3529411764705 1054.1176470588234zM632.4705882352941 1159.5294117647059L1159.5294117647059 1159.5294117647059L1159.5294117647059 632.4705882352941L632.4705882352941 632.4705882352941L632.4705882352941 1159.5294117647059zM737.8823529411765 1054.1176470588234L737.8823529411765 737.8823529411766L1054.1176470588234 737.8823529411766L1054.1176470588234 1054.1176470588234L737.8823529411765 1054.1176470588234zM0 527.0588235294117L527.0588235294117 527.0588235294117L527.0588235294117 0L0 0L0 527.0588235294117zM105.4117647058824 421.6470588235295L105.4117647058824 105.4117647058824L421.6470588235294 105.4117647058824L421.6470588235294 421.6470588235295L105.4117647058824 421.6470588235295zM1264.9411764705883 527.0588235294117L1792 527.0588235294117L1792 0L1264.9411764705883 0L1264.9411764705883 527.0588235294117zM1370.3529411764705 421.6470588235295L1370.3529411764705 105.4117647058824L1686.5882352941176 105.4117647058824L1686.5882352941176 421.6470588235295L1370.3529411764705 421.6470588235295zM632.4705882352941 527.0588235294117L1159.5294117647059 527.0588235294117L1159.5294117647059 0L632.4705882352941 0L632.4705882352941 527.0588235294117zM737.8823529411765 421.6470588235295L737.8823529411765 105.4117647058824L1054.1176470588234 105.4117647058824L1054.1176470588234 421.6470588235295L737.8823529411765 421.6470588235295z" />
    <glyph glyph-name="z-icon13"
      unicode="&#xF136;"
      horiz-adv-x="2180.266666666667" d=" M2155.8058666666666 632.6954666666666L1892.9792 959.4367999999998A36.9152 36.9152 0 0 0 1887.0058666666669 970.9951999999998A24.72960000000001 24.72960000000001 0 0 0 1885.7216 975.7141333333332L1765.3888000000002 1642.0693333333334A182.18666666666667 182.18666666666667 0 0 1 1586.5173333333332 1792H109.0133333333333A109.37173333333332 109.37173333333332 0 0 1 0 1682.2997333333333V292.6933333333332A36.467200000000005 36.467200000000005 0 0 1 36.3477333333333 256.1365333333333H145.3610666666667A254.3744 254.3744 0 1 1 654.08 256.1365333333333H1308.1599999999999A254.3744 254.3744 0 1 1 1816.8789333333336 256.1365333333333H2143.9189333333334A36.467200000000005 36.467200000000005 0 0 1 2180.266666666667 292.6933333333332V563.5839999999998A110.95466666666668 110.95466666666668 0 0 1 2155.8058666666666 632.6954666666666zM1809.6213333333335 987.4517333333334H1308.1599999999999A109.37173333333332 109.37173333333332 0 0 0 1199.1466666666665 1097.1818666666668V1462.8693333333333A109.37173333333332 109.37173333333332 0 0 0 1308.1599999999999 1572.5696H1704.2517333333333zM399.7056 73.1733333333334A182.48533333333333 182.48533333333333 0 0 0 218.0266666666667 256.0170666666668A173.6448 173.6448 0 0 0 221.0133333333333 287.2576000000002A149.66186666666667 149.66186666666667 0 0 0 228.8384 317.1242666666667A180.96213333333333 180.96213333333333 0 0 0 571.1104 316.2282666666668A145.36106666666666 145.36106666666666 0 0 0 578.8458666666667 286.0330666666667A167.49226666666664 167.49226666666664 0 0 0 581.5338666666667 255.9871999999998A182.48533333333333 182.48533333333333 0 0 0 399.7056 73.1733333333332zM1562.5045333333335 73.1733333333334A182.48533333333333 182.48533333333333 0 0 0 1380.8256000000001 256.0170666666668A173.82400000000004 173.82400000000004 0 0 0 1383.8122666666668 287.2576000000002A149.33333333333337 149.33333333333337 0 0 0 1391.6373333333336 317.1242666666667A180.96213333333333 180.96213333333333 0 0 0 1733.9093333333335 316.2282666666668A145.5402666666667 145.5402666666667 0 0 0 1741.6448000000003 286.0330666666667A167.76106666666666 167.76106666666666 0 0 0 1744.3328000000004 255.9871999999998A182.48533333333333 182.48533333333333 0 0 0 1562.5344000000002 73.1733333333332zM2107.5712000000003 475.4474666666667H1925.8922666666667V402.3040000000001H2107.5712000000003V329.1605333333335H1806.2165333333332A160.2048 160.2048 0 0 1 1802.1546666666663 341.1072000000002A253.50826666666666 253.50826666666666 0 0 1 1323.0933333333332 342.0330666666669C1321.5104000000001 337.7621333333334 1320.1066666666666 333.4613333333334 1318.7328 329.1605333333335H643.3877333333334A160.2048 160.2048 0 0 1 639.3258666666668 341.1072000000002A253.50826666666666 253.50826666666666 0 0 1 160.3840000000001 342.0330666666669C158.8010666666667 337.7621333333334 157.3973333333334 333.4613333333334 156.0234666666667 329.1605333333335H72.6656V1682.2997333333333A36.467200000000005 36.467200000000005 0 0 0 109.0133333333333 1718.8565333333333H1586.5173333333332A109.07306666666669 109.07306666666669 0 0 0 1689.3183999999999 1645.6533333333332H1308.1599999999999A182.48533333333333 182.48533333333333 0 0 1 1126.4810666666667 1462.8096V1097.152A182.51519999999996 182.51519999999996 0 0 1 1308.1599999999999 914.2784H1835.904L1836.5909333333332 913.2330666666666L2099.4176 586.7306666666666A36.76586666666667 36.76586666666667 0 0 0 2107.7504 563.5839999999998V475.4474666666665zM1199.1466666666665 841.1349333333334H1344.5077333333331V767.9914666666666H1199.1466666666665V841.1349333333333zM944.7722666666666 1609.1562666666666H181.6789333333333A36.467200000000005 36.467200000000005 0 0 1 145.3610666666667 1572.5696V585.1477333333332A36.467200000000005 36.467200000000005 0 0 1 181.7088 548.5610666666666H944.8021333333334A36.467200000000005 36.467200000000005 0 0 1 981.1498666666666 585.1477333333332V1572.5696A36.467200000000005 36.467200000000005 0 0 1 944.7722666666666 1609.1562666666666zM908.4544 621.7045333333333H218.0266666666667V987.4517333333334H908.4544V621.7045333333333zM908.4544 1060.5653333333335H218.0266666666667V1535.9829333333332H908.4544V1060.5653333333335zM1526.1866666666667 292.6933333333332H1598.8522666666668V219.5498666666665H1526.1866666666667V292.6933333333332zM363.3877333333334 292.6933333333332H436.0533333333334V219.5498666666665H363.3877333333334V292.6933333333332z" />
    <glyph glyph-name="z-list"
      unicode="&#xF137;"
      horiz-adv-x="1792" d=" M0 1792L527.0588235294117 1792L527.0588235294117 1264.9411764705883L0 1264.9411764705883L0 1792zM105.4117647058824 1686.5882352941176L105.4117647058824 1370.3529411764707L421.6470588235294 1370.3529411764707L421.6470588235294 1686.5882352941176L105.4117647058824 1686.5882352941176zM632.4705882352941 1792L1792 1792L1792 1264.9411764705883L632.4705882352941 1264.9411764705883L632.4705882352941 1792zM737.8823529411765 1686.5882352941176L737.8823529411765 1370.3529411764707L1686.5882352941176 1370.3529411764707L1686.5882352941176 1686.5882352941176L737.8823529411765 1686.5882352941176zM0 1159.5294117647059L527.0588235294117 1159.5294117647059L527.0588235294117 632.4705882352941L0 632.4705882352941L0 1159.5294117647059zM105.4117647058824 1054.1176470588234L105.4117647058824 737.8823529411766L421.6470588235294 737.8823529411766L421.6470588235294 1054.1176470588234L105.4117647058824 1054.1176470588234zM632.4705882352941 1159.5294117647059L1792 1159.5294117647059L1792 632.4705882352941L632.4705882352941 632.4705882352941L632.4705882352941 1159.5294117647059zM737.8823529411765 1054.1176470588234L737.8823529411765 737.8823529411766L1686.5882352941176 737.8823529411766L1686.5882352941176 1054.1176470588234L737.8823529411765 1054.1176470588234zM0 527.0588235294117L527.0588235294117 527.0588235294117L527.0588235294117 0L0 0L0 527.0588235294117zM105.4117647058824 421.6470588235295L105.4117647058824 105.4117647058824L421.6470588235294 105.4117647058824L421.6470588235294 421.6470588235295L105.4117647058824 421.6470588235295zM632.4705882352941 527.0588235294117L1792 527.0588235294117L1792 0L632.4705882352941 0L632.4705882352941 527.0588235294117zM737.8823529411765 421.6470588235295L737.8823529411765 105.4117647058824L1686.5882352941176 105.4117647058824L1686.5882352941176 421.6470588235295L737.8823529411765 421.6470588235295z" />
    <glyph glyph-name="z-pencil-alt-solid"
      unicode="&#xF138;"
      horiz-adv-x="1792" d=" M1742.6499999999999 1294.65L1581.2999999999997 1133.3000000000002C1564.85 1116.8500000000001 1538.2499999999998 1116.8500000000001 1521.7999999999997 1133.3000000000002L1133.2999999999997 1521.8000000000002C1116.85 1538.25 1116.85 1564.85 1133.2999999999997 1581.3L1294.6499999999999 1742.65C1360.1 1808.1 1466.5 1808.1 1532.2999999999997 1742.65L1742.6499999999999 1532.3000000000002C1808.45 1466.85 1808.45 1360.45 1742.6499999999999 1294.65zM994.7 1442.7L75.6 523.6000000000001L1.4 98.3500000000001C-8.75 40.9500000000003 41.3 -8.75 98.7 1.05L523.9499999999999 75.6000000000001L1443.05 994.7000000000002C1459.5 1011.15 1459.5 1037.7500000000002 1443.05 1054.2000000000003L1054.55 1442.7000000000003C1037.75 1459.15 1011.15 1459.15 994.7 1442.7000000000003zM434.35 602.3500000000001C415.1 621.6000000000001 415.1 652.4000000000001 434.35 671.6500000000001L973.3500000000003 1210.65C992.6000000000003 1229.9 1023.4 1229.9 1042.65 1210.65S1061.9 1160.6000000000001 1042.65 1141.3500000000001L503.6500000000001 602.3500000000001C484.4000000000001 583.1000000000001 453.6000000000001 583.1000000000001 434.3500000000002 602.3500000000001zM308 308H476V180.9500000000001L250.25 141.3999999999999L141.4 250.25L180.95 476H308V308z" />
    <glyph glyph-name="z-search-2"
      unicode="&#xF139;"
      horiz-adv-x="1791.9999999999998" d=" M1742.6337185185184 49.3707061728398C1677.1261629629628 -16.2563160493823 1570.712335802469 -16.2563160493823 1505.0941629629629 49.3707061728398L1093.9872395061727 460.4732049382719A791.0817185185185 791.0817185185185 0 0 1 1331.5312197530864 698.0171851851853L1742.6337185185184 286.9102617283952C1808.2563160493828 221.2920888888891 1808.2563160493828 114.8782617283953 1742.6337185185184 49.3707061728398zM671.9469037037038 448.1106172839509C300.870162962963 448.1106172839507 0.004424691358 748.9807802469136 0.004424691358 1120.0575209876542S300.870162962963 1792 671.9469037037036 1792S1343.8893827160493 1491.1342617283951 1343.8893827160493 1120.0575209876542S1043.0236444444445 448.1106172839507 671.9469037037038 448.1106172839507zM671.9469037037038 1624.0121679012348C394.049738271605 1624.0121679012348 167.9878320987655 1397.9546864197532 167.9878320987655 1120.0575209876547S394.049738271605 616.0984493827164 671.9469037037038 616.0984493827164C949.8440691358026 616.0984493827164 1175.9015506172839 842.1603555555558 1175.9015506172839 1120.0575209876547C1175.9015506172839 1397.9546864197532 949.8440691358024 1624.0121679012348 671.9469037037036 1624.0121679012348z" />
    <glyph glyph-name="z-stick"
      unicode="&#xF13A;"
      horiz-adv-x="1194.6666666666665" d=" M1113.2330666666667 893.4058666666667C1058.9525333333331 961.5104 997.6149333333332 995.5447466666666 929.1605333333334 995.5447466666666V1526.5134933333334C965.1029333333332 1526.5134933333334 996.2495999999998 1539.648 1022.4810666666668 1565.91616C1048.7722666666666 1592.1877333333334 1061.9221333333332 1623.3122133333334 1061.9221333333332 1659.2529066666666C1061.9221333333332 1695.2123733333333 1048.7722666666666 1726.3185066666667 1022.4810666666668 1752.5904213333333C996.2495999999998 1778.8622506666666 965.1029333333332 1792 929.1605333333334 1792H265.4830933333334C229.5236266666667 1792 198.4170666666667 1778.8622506666666 172.1454933333333 1752.5904213333333C145.8696533333333 1726.3185066666667 132.736 1695.2157866666666 132.736 1659.2529066666666C132.736 1623.2977066666667 145.8696533333333 1592.1877333333334 172.1454933333333 1565.91616C198.4170666666667 1539.648 229.53472 1526.5134933333334 265.4830933333334 1526.5134933333334V995.5592533333333C197.0372266666667 995.5592533333333 135.6885333333334 961.5104 81.412608 893.4144C27.1435946666667 825.3098666666667 0 748.7573333333335 0 663.6970666666666C0 645.7258666666667 6.5707008 630.1696000000002 19.708416 617.0368000000001C32.8534186666667 603.9125333333334 48.4066133333333 597.3504 66.3825066666667 597.3504H485.3376L564.14976 94.378666666667C567.5997866666667 75.7077333333334 578.6641066666666 66.3893333333333 597.3299199999999 66.3893333333333H598.3863466666667C606.6466133333333 66.3893333333333 613.7693866666666 69.3248000000001 619.6386133333333 75.1872000000001C625.5044266666666 81.0666666666666 629.1336533333333 88.1578666666669 630.5134933333333 96.4522666666667L683.3911466666666 597.3418666666666H1128.2773333333332C1146.2485333333334 597.3418666666666 1161.8218666666667 603.9125333333334 1174.9376 617.0368000000001C1188.0874666666666 630.1610666666668 1194.6666666666665 645.7258666666667 1194.6666666666665 663.6970666666666C1194.6752 748.7488000000001 1167.5050666666666 825.3013333333333 1113.2330666666667 893.4058666666667zM497.77408 1028.7249066666668C497.77408 1019.0557866666666 494.6688 1011.1121066666668 488.4394666666667 1004.8793600000002C482.21696 998.65344 474.2630399999999 995.5447466666666 464.58624 995.5447466666666C454.91712 995.5447466666666 446.9589333333334 998.6500266666666 440.7338666666667 1004.8793600000002C434.51136 1011.1010133333332 431.40608 1019.0557866666666 431.40608 1028.7249066666668V1493.3111466666667C431.40608 1502.9879466666666 434.51136 1510.9572266666667 440.7338666666667 1517.1643733333333C446.9589333333334 1523.3792 454.91712 1526.49216 464.58624 1526.49216C474.2630399999999 1526.49216 482.21696 1523.3902933333334 488.4394666666667 1517.1643733333333C494.6645333333333 1510.9461333333334 497.77408 1502.9879466666666 497.77408 1493.3111466666667V1028.7249066666668z" />
    <glyph glyph-name="z-update"
      unicode="&#xF13B;"
      horiz-adv-x="1686.5882352941176" d=" M1788.5846588235295 511.9533176470588C1776.7258352941176 548.4363294117647 1737.544282352941 568.3907764705882 1701.0507294117647 556.5530352941178L1610.7233882352941 527.2064C1666.0540235294116 641.6414117647059 1695.0422588235294 767.4893552941178 1695.0422588235294 895.9957835294118C1695.0422588235294 1363.319868235294 1314.8536470588235 1743.5146992941177 847.5190211764705 1743.5146992941177C380.1938823529412 1743.5146992941177 0 1363.319868235294 0 895.9957835294118C0 428.6674823529411 380.1938823529412 48.4788705882354 847.5190211764705 48.4788705882354C885.8825788235292 48.4788705882354 916.9874823529412 79.5858823529411 916.9874823529412 117.9452235294118C916.9874823529412 156.3045647058823 885.8825788235292 187.4115764705885 847.5190211764705 187.4115764705885C456.8039905882353 187.4115764705885 138.9379764705882 505.2702117647059 138.9379764705882 895.9957835294118C138.9379764705882 1286.70976 456.8039905882353 1604.5768282352942 847.5190211764705 1604.5768282352942C1238.2403764705882 1604.5768282352942 1556.099011764706 1286.70976 1556.099011764706 895.9957835294118C1556.099011764706 788.335585882353 1531.8121411764705 682.9417411764707 1485.3888 587.1751529411765L1454.5347764705882 682.1827764705884C1442.6759529411763 718.6657882352943 1403.4838588235293 738.6297223529411 1367.0008470588234 726.782494117647C1330.507294117647 714.9236705882354 1310.531764705882 675.7315764705882 1322.390588235294 639.2485647058822L1404.3060705882353 387.1141647058824C1413.835294117647 357.7569882352944 1441.073694117647 339.0885647058824 1470.3570823529412 339.0885647058824C1477.4723764705882 339.0885647058824 1484.7141647058822 340.1848470588236 1491.84 342.5039058823529L1743.9743999999998 424.4088470588236C1780.4574117647057 436.2676705882355 1800.4329411764704 475.4492235294119 1788.5846588235295 511.9533176470588z" />
  </font>
</defs>
</svg>
